Loading...
Error

(Церковная музыка и церковные хоры (lossless).) "Радуйся, Невесто Неневестная". Акафист Божией Матери. Хор Саратовской Духовной Семинарии. - 2005, APE (image + .cue), lossless

Ответить на тему
Статистика раздачи
Скачали: [ 12 ]
   
 
Автор Сообщение

СЕРГУЛЕТ

Стаж: 8 лет 3 месяца

Сообщений: 2639

Откуда: LA ROMANA

Dominicanrep

post 02-Окт-2009 15:53

[Цитировать] 

"Радуйся, Невесто Неневестная". Акафист Божией Матери. Хор Саратовской Духовной Семинарии.

pic
Страна: Россия. Издательство Саратовской Епархии.
Жанр: Церковная музыка и церковные хоры (lossless).
Год выпуска: 2005
Формат: APE (image + .cue)
Битрейт аудио: lossless
Продолжительность: 01:04:18
Обложки+Содержание
picpicpic
EAC log
Exact Audio Copy V0.99 prebeta 5 from 4. May 2009

Отчёт EAC об извлечении, выполненном 2. октября 2009, 7:18

Хор Саратовской Духовной Семинарии (Лонгин) / Радуйся, Невесто Неневестная (Rejoice, O Bride Unwedded)

Дисковод: ASUS BC-1205PT Adapter: 1 ID: 0

Режим чтения : Достоверность
Использование точного потока : Да
Отключение кэша аудио : Да
Использование указателей C2 : Нет

Коррекция смещения при чтении : 667
Способность читать области Lead-in и Lead-out : Нет
Заполнение пропущенных сэмплов тишиной : Да
Удаление блоков с тишиной в начале и конце : Нет
При вычислениях CRC использовались нулевые сэмплы : Да
Интерфейс : Встроенный Win32-интерфейс для Win NT/2000

Выходной формат : Внутренние WAV-операции
Формат сэмплов : 44.100 Гц; 16 бит; стерео

TOC извлечённого CD

Трек | Старт | Длительность | Начальный сектор | Конечный сектор
---------------------------------------------------------------------
1 | 0:00.00 | 2:17.10 | 0 | 10284
2 | 2:17.10 | 1:13.66 | 10285 | 15825
3 | 3:31.01 | 2:06.69 | 15826 | 25344
4 | 5:37.70 | 1:03.19 | 25345 | 30088
5 | 6:41.14 | 29:11.60 | 30089 | 161473
6 | 35:52.74 | 3:52.07 | 161474 | 178880
7 | 39:45.06 | 1:55.14 | 178881 | 187519
8 | 41:40.20 | 1:06.58 | 187520 | 192527
9 | 42:47.03 | 7:00.34 | 192528 | 224061
10 | 49:47.37 | 2:05.12 | 224062 | 233448
11 | 51:52.49 | 1:23.55 | 233449 | 239728
12 | 53:16.29 | 2:33.41 | 239729 | 251244
13 | 55:49.70 | 1:59.63 | 251245 | 260232
14 | 57:49.58 | 3:50.59 | 260233 | 277541
15 | 61:40.42 | 2:36.14 | 277542 | 289255

Характеристики диапазона извлечения и сообщения об ошибках

Выбранный диапазон

Имя файла C:\Хор Саратовской Духовной Семинарии (Лонгин) - Радуйся, Невесто Неневестная (Rejoice, O Bride Unwedded).wav

Пиковый уровень 99.3 %
Качество диапазона 100.0 %
CRC копии D1624425
Копирование... OK

Ошибок не произошло

Конец отчёта
Download

Войдите для скачивания торрент-файла

Как скачивать  ·   Правила трекера

[Профиль]  [ЛС] 

Владимир Лухов

Стаж: 6 лет 8 месяцев

Сообщений: 108

Откуда: Саратов

Russia

post 07-Сен-2011 18:55 (спустя 1 год 11 месяцев)

[Цитировать] 

Спасибо.
Очень приятная и радостная служба.
По воле Господа в2008 году находился в соборе Духосошествия в Саратове во время этой службы.
Очень тёплые и светлые воспоминания от моления.

_________________
С уважением. Владимир.
[Профиль]  [ЛС] 

Anatolem

Стаж: 7 лет 8 месяцев

Сообщений: 69

Откуда: Украина, г. Макеевка

Ussr

post 05-Апр-2014 02:31 (спустя 2 года 6 месяцев)

[Цитировать] 

Спасибо!"Радуйся, Невесто Неневестная!" - с праздником!

_________________
Слава Святей, и Единосущней, и Животворящей, и Нераздельней Троице всегда, ныне и присно, и во веки веков!
[Профиль]  [ЛС] 

александрр1977

Стаж: 5 лет 5 месяцев

Сообщений: 81

Russia

post 20-Апр-2015 00:31 (спустя 1 год)

[Цитировать] 

Благодарю.
[Профиль]  [ЛС] 
Показать сообщения:    
Ответить на тему

Текущее время: 26-Май 16:58

Часовой пояс: GMT + 4



Вы не можете начинать темы
Вы не можете отвечать на сообщения
Вы не можете редактировать свои сообщения
Вы не можете удалять свои сообщения
Вы не можете голосовать в опросах
Вы не можете прикреплять файлы к сообщениям
Вы не можете скачивать файлы