Loading...
Error

(Церковная музыка и церковные хоры (lossless).) "Молебен с акафистом Пресвятой Богородице пред Чудотворной Ее иконой, именуемой "Призри на смирение". - 2007, AРЕ (image + .cue), lossless

Ответить на тему
Статистика раздачи
   
 
Автор Сообщение

СЕРГУЛЕТ

Стаж: 8 лет 8 месяцев

Сообщений: 2640

Откуда: LA ROMANA

Dominicanrep

post 01-Окт-2009 22:35

[Цитировать] 

"Молебен с акафистом Пресвятой Богородице пред Чудотворной Ее иконой, именуемой "Призри на смирение".

pic
Страна: Россия. Данилов монастырь.
Жанр: Церковная музыка и церковные хоры (lossless).
Год выпуска: 2007
Формат: AРЕ (image + .cue)
Битрейт аудио: lossless
Продолжительность: 00:58:02
Содержание
pic
EAC log
Exact Audio Copy V0.99 prebeta 5 from 4. May 2009

Отчёт EAC об извлечении, выполненном 1. октября 2009, 19:32

Хор Данилова Монастыря / Акафист Пресвятой Богородице "Призри на смирение"

Дисковод: ASUS BC-1205PT Adapter: 1 ID: 0

Режим чтения : Достоверность
Использование точного потока : Да
Отключение кэша аудио : Да
Использование указателей C2 : Нет

Коррекция смещения при чтении : 667
Способность читать области Lead-in и Lead-out : Нет
Заполнение пропущенных сэмплов тишиной : Да
Удаление блоков с тишиной в начале и конце : Нет
При вычислениях CRC использовались нулевые сэмплы : Да
Интерфейс : Встроенный Win32-интерфейс для Win NT/2000

Выходной формат : Внутренние WAV-операции
Формат сэмплов : 44.100 Гц; 16 бит; стерео

TOC извлечённого CD

Трек | Старт | Длительность | Начальный сектор | Конечный сектор
---------------------------------------------------------------------
1 | 0:00.00 | 0:19.38 | 0 | 1462
2 | 0:19.38 | 1:01.43 | 1463 | 6080
3 | 1:21.06 | 1:15.11 | 6081 | 11716
4 | 2:36.17 | 0:47.48 | 11717 | 15289
5 | 3:23.65 | 0:55.30 | 15290 | 19444
6 | 4:19.20 | 1:49.21 | 19445 | 27640
7 | 6:08.41 | 2:24.39 | 27641 | 38479
8 | 8:33.05 | 1:46.64 | 38480 | 46493
9 | 10:19.69 | 0:43.39 | 46494 | 49757
10 | 11:03.33 | 1:55.53 | 49758 | 58435
11 | 12:59.11 | 0:43.51 | 58436 | 61711
12 | 13:42.62 | 1:34.68 | 61712 | 68829
13 | 15:17.55 | 0:55.18 | 68830 | 72972
14 | 16:12.73 | 1:52.25 | 72973 | 81397
15 | 18:05.23 | 0:47.27 | 81398 | 84949
16 | 18:52.50 | 1:47.28 | 84950 | 93002
17 | 20:40.03 | 0:57.16 | 93003 | 97293
18 | 21:37.19 | 1:56.21 | 97294 | 106014
19 | 23:33.40 | 0:39.57 | 106015 | 108996
20 | 24:13.22 | 1:59.74 | 108997 | 117995
21 | 26:13.21 | 0:39.65 | 117996 | 120985
22 | 26:53.11 | 2:18.20 | 120986 | 131355
23 | 29:11.31 | 0:41.09 | 131356 | 134439
24 | 29:52.40 | 1:51.05 | 134440 | 142769
25 | 31:43.45 | 0:57.38 | 142770 | 147082
26 | 32:41.08 | 2:18.40 | 147083 | 157472
27 | 34:59.48 | 1:00.37 | 157473 | 162009
28 | 36:00.10 | 2:13.16 | 162010 | 172000
29 | 38:13.26 | 0:48.74 | 172001 | 175674
30 | 39:02.25 | 2:00.04 | 175675 | 184678
31 | 41:02.29 | 1:08.55 | 184679 | 189833
32 | 42:11.09 | 1:09.04 | 189834 | 195012
33 | 43:20.13 | 1:10.13 | 195013 | 200275
34 | 44:30.26 | 2:01.43 | 200276 | 209393
35 | 46:31.69 | 1:06.31 | 209394 | 214374
36 | 47:38.25 | 3:14.16 | 214375 | 228940
37 | 50:52.41 | 2:05.71 | 228941 | 238386
38 | 52:58.37 | 1:31.12 | 238387 | 245223
39 | 54:29.49 | 1:11.49 | 245224 | 250597
40 | 55:41.23 | 2:21.14 | 250598 | 261186

Характеристики диапазона извлечения и сообщения об ошибках

Выбранный диапазон

Имя файла C:\Хор Данилова Монастыря - Акафист Пресвятой Богородице Призри на смирение.wav

Пиковый уровень 94.8 %
Качество диапазона 100.0 %
CRC копии 64E542BC
Копирование... OK

Ошибок не произошло

Конец отчёта
Download

Войдите на сайт, чтобы увидеть полную информацию.

Как скачивать  ·   Правила трекера

[Профиль]  [ЛС] 

NLindholm

Стаж: 7 лет 10 месяцев

Сообщений: 3

Sweden

post 16-Дек-2009 00:50 (спустя 2 месяца 14 дней)

[Цитировать] 

Наконец-то я нашла где это скачать! Ура! Купила на rumvi.com, но там весь молебен разбит на маленькие треки, и когда слушаешь все вместе, получаются дурацкие дырки тишины между этими треками. Только на компьютере можно слушать. А теперь буду слушать постоянно! Спасибо огромное!!!
[Профиль]  [ЛС] 

velon

Стаж: 7 лет 5 месяцев

Сообщений: 1

Russia

post 04-Май-2010 11:13 (спустя 4 месяца 20 дней)

[Цитировать] 

ау пытаюсь скачать 2-е сутки скорость 1 килобит может газку кто поддаст
[Профиль]  [ЛС] 

дгиф

post 28-Авг-2010 21:16 (спустя 3 месяца 24 дня)

[Цитировать] 

объясните, пожалуйста, как отсюда скачивать
 

LYAPI

Стаж: 6 лет 5 месяцев

Сообщений: 43

Ukraine

post 29-Сен-2011 16:52 (спустя 1 год 1 месяц)

[Цитировать] 

СЕРГУЛЕТ, снова благодарю Вас за труды Smile .
Пресвятая Богородица, спаси нас!

_________________
+++
[Профиль]  [ЛС] 

NIRVANOV2009

Стаж: 7 лет 2 месяца

Сообщений: 20

post 02-Фев-2013 12:22 (спустя 1 год 4 месяца)

[Цитировать] 

спаси Вас ГОСПОДИ!
[Профиль]  [ЛС] 
Показать сообщения:    
Ответить на тему

Текущее время: 24-Окт 06:03

Часовой пояс: GMT + 4



Вы не можете начинать темы
Вы не можете отвечать на сообщения
Вы не можете редактировать свои сообщения
Вы не можете удалять свои сообщения
Вы не можете голосовать в опросах
Вы не можете прикреплять файлы к сообщениям
Вы не можете скачивать файлы