Loading...
Error

(Церковная музыка и церковные хоры (lossless).) "Молебен с акафистом Святителю Христову и Чудотворцу Тихону Задонскому, епископу Воронежскому". - 2004, APE (image + .cue), lossless

Ответить на тему
Статистика раздачи
Скачали: [ 4 ]
   
 
Автор Сообщение

СЕРГУЛЕТ

Стаж: 8 лет

Сообщений: 2639

Откуда: LA ROMANA

Dominicanrep

post 01-Окт-2009 07:29

[Цитировать] 

"Молебен с акафистом Святителю Христову и Чудотворцу Тихону Задонскому, епископу Воронежскому".

pic
Страна: Россия. Фонд Т. Хренникова.
Жанр: Церковная музыка и церковные хоры (lossless).
Год выпуска: 2004
Формат: APE (image + .cue)
Битрейт аудио: lossless
Продолжительность: 01:09:01
Обложки+Содержание
picpicpic
EAC log
Exact Audio Copy V0.99 prebeta 5 from 4. May 2009

Отчёт EAC об извлечении, выполненном 1. октября 2009, 7:17

Епископ Задонский Никон. / Молебен с акафистом Тихону Задонскому.

Дисковод: ASUS BC-1205PT Adapter: 1 ID: 0

Режим чтения : Достоверность
Использование точного потока : Да
Отключение кэша аудио : Да
Использование указателей C2 : Нет

Коррекция смещения при чтении : 667
Способность читать области Lead-in и Lead-out : Нет
Заполнение пропущенных сэмплов тишиной : Да
Удаление блоков с тишиной в начале и конце : Нет
При вычислениях CRC использовались нулевые сэмплы : Да
Интерфейс : Встроенный Win32-интерфейс для Win NT/2000

Выходной формат : Внутренние WAV-операции
Формат сэмплов : 44.100 Гц; 16 бит; стерео

TOC извлечённого CD

Трек | Старт | Длительность | Начальный сектор | Конечный сектор
---------------------------------------------------------------------
1 | 0:00.00 | 2:02.30 | 0 | 9179
2 | 2:02.30 | 4:18.55 | 9180 | 28584
3 | 6:21.10 | 3:27.59 | 28585 | 44168
4 | 9:48.69 | 3:20.64 | 44169 | 59232
5 | 13:09.58 | 3:15.46 | 59233 | 73903
6 | 16:25.29 | 3:39.23 | 73904 | 90351
7 | 20:04.52 | 3:17.42 | 90352 | 105168
8 | 23:22.19 | 3:18.40 | 105169 | 120058
9 | 26:40.59 | 3:27.07 | 120059 | 135590
10 | 30:07.66 | 3:07.31 | 135591 | 149646
11 | 33:15.22 | 3:23.54 | 149647 | 164925
12 | 36:39.01 | 2:48.68 | 164926 | 177593
13 | 39:27.69 | 3:45.10 | 177594 | 194478
14 | 43:13.04 | 3:08.30 | 194479 | 208608
15 | 46:21.34 | 4:55.12 | 208609 | 230745
16 | 51:16.46 | 1:23.70 | 230746 | 237040
17 | 52:40.41 | 3:42.51 | 237041 | 253741
18 | 56:23.17 | 1:38.69 | 253742 | 261160
19 | 58:02.11 | 2:00.56 | 261161 | 270216
20 | 60:02.67 | 0:30.57 | 270217 | 272523
21 | 60:33.49 | 4:01.33 | 272524 | 290631
22 | 64:35.07 | 1:34.30 | 290632 | 297711
23 | 66:09.37 | 1:30.60 | 297712 | 304521
24 | 67:40.22 | 1:18.72 | 304522 | 310443

Характеристики диапазона извлечения и сообщения об ошибках

Выбранный диапазон

Имя файла C:\Епископ Задонский Никон. - Молебен с акафистом Тихону Задонскому..wav

Пиковый уровень 98.8 %
Качество диапазона 100.0 %
CRC копии 5A14CAE9
Копирование... OK

Ошибок не произошло

Конец отчёта
Download

Войдите для скачивания торрент-файла

Как скачивать  ·   Правила трекера



Последний раз редактировалось: СЕРГУЛЕТ (2009-10-02 10:18), всего редактировалось 1 раз
[Профиль]  [ЛС] 

Anatolem

Стаж: 7 лет 5 месяцев

Сообщений: 69

Откуда: Украина, г. Макеевка

Ussr

post 02-Окт-2009 08:56 (спустя 1 день 1 час)

[Цитировать] 

Спаси Вас Господи, добрый человек!(Сергий?)

_________________
Слава Святей, и Единосущней, и Животворящей, и Нераздельней Троице всегда, ныне и присно, и во веки веков!
[Профиль]  [ЛС] 

slavianka

Стаж: 7 лет 3 месяца

Сообщений: 5

Russia

post 31-Авг-2010 23:20 (спустя 10 месяцев)

[Цитировать] 

Благодарим за труд. Храни Вас Господь!
[Профиль]  [ЛС] 
Показать сообщения:    
Ответить на тему

Текущее время: 26-Фев 23:07

Часовой пояс: GMT + 4



Вы не можете начинать темы
Вы не можете отвечать на сообщения
Вы не можете редактировать свои сообщения
Вы не можете удалять свои сообщения
Вы не можете голосовать в опросах
Вы не можете прикреплять файлы к сообщениям
Вы не можете скачивать файлы