Loading...
Error

(Церковная музыка и церковные хоры (lossless).) "Божественная литургия Святителя Иоанна Златоуста". Братский хор Ватопедского монастыря. Святая Гора Афон. - 2007, APE (image + .cue), lossless

Ответить на тему
Статистика раздачи
   
 
Автор Сообщение

СЕРГУЛЕТ

Стаж: 8 лет 8 месяцев

Сообщений: 2640

Откуда: LA ROMANA

Dominicanrep

post 13-Сен-2009 08:30

[Цитировать] 

"Божественная литургия Святителя Иоанна Златоуста". Братский хор Ватопедского монастыря. Святая Гора Афон.

pic
Страна: Греция. Святая Гора Афон. Монастырь Ватопед.
Жанр: Церковная музыка и церковные хоры (lossless).
Год выпуска: 2007
Формат: APE (image + .cue)
Битрейт аудио: lossless
Продолжительность: 01:12:25+00:59:18.
Трэклист:
Диск 1
1. Благословенно царство.
2. 1 Антифон
3. 2 Антифон
4. Блаженны
5. Малый вход, тропари
6. Трисвятое
7. Динамис
8. Прокимен, Апостол
9. Аллилуиарий
10. Евангелие
11. Ектения
12. Херувимская

Диск 2
1. Просительная ектения
2. Символ веры
3. Евхаристический канон
4. Достойно есть.
5. Ектения
6. Чашу спасения прииму
7. Причащение
8. Заамвонная молитва
9. Тропари
10. Буди имя Господне
11. Отпуст
12. Пресвятая Владычице…
EAC log
Exact Audio Copy V0.99 prebeta 5 from 4. May 2009

Отчёт EAC об извлечении, выполненном 13. сентября 2009, 8:08

Iera Moni Vatopaidiou / I Theia Leitoyrgia Tou Agiou Ioanni Tou Hrysostomou

Дисковод: ASUS BC-1205PT Adapter: 1 ID: 0

Режим чтения : Достоверность
Использование точного потока : Да
Отключение кэша аудио : Да
Использование указателей C2 : Нет

Коррекция смещения при чтении : 667
Способность читать области Lead-in и Lead-out : Нет
Заполнение пропущенных сэмплов тишиной : Да
Удаление блоков с тишиной в начале и конце : Нет
При вычислениях CRC использовались нулевые сэмплы : Да
Интерфейс : Встроенный Win32-интерфейс для Win NT/2000

Выходной формат : Внутренние WAV-операции
Формат сэмплов : 44.100 Гц; 16 бит; стерео

TOC извлечённого CD

Трек | Старт | Длительность | Начальный сектор | Конечный сектор
---------------------------------------------------------------------
1 | 0:00.00 | 5:33.66 | 0 | 25040
2 | 5:33.66 | 6:33.64 | 25041 | 54579
3 | 12:07.55 | 5:12.55 | 54580 | 78034
4 | 17:20.35 | 5:00.15 | 78035 | 100549
5 | 22:20.50 | 4:56.69 | 100550 | 122818
6 | 27:17.44 | 3:16.47 | 122819 | 137565
7 | 30:34.16 | 7:29.21 | 137566 | 171261
8 | 38:03.37 | 3:41.29 | 171262 | 187865
9 | 41:44.66 | 2:20.29 | 187866 | 198394
10 | 44:05.20 | 3:37.69 | 198395 | 214738
11 | 47:43.14 | 6:42.22 | 214739 | 244910
12 | 54:25.36 | 17:57.45 | 244911 | 325730

Характеристики диапазона извлечения и сообщения об ошибках

Выбранный диапазон

Имя файла C:\Users\Сергулет\Documents\Iera Moni Vatopaidiou - I Theia Leitoyrgia Tou Agiou Ioanni Tou Hrysostomou.wav

Пиковый уровень 100.0 %
Качество диапазона 99.9 %
CRC копии 8381EFA5
Копирование... OK

Ошибок не произошло

Конец отчёта

CD2
Exact Audio Copy V0.99 prebeta 5 from 4. May 2009

Отчёт EAC об извлечении, выполненном 13. сентября 2009, 8:21

Хор монастыря Ватопед-2 / Божественная Литургия-2

Дисковод: ASUS BC-1205PT Adapter: 1 ID: 0

Режим чтения : Достоверность
Использование точного потока : Да
Отключение кэша аудио : Да
Использование указателей C2 : Нет

Коррекция смещения при чтении : 667
Способность читать области Lead-in и Lead-out : Нет
Заполнение пропущенных сэмплов тишиной : Да
Удаление блоков с тишиной в начале и конце : Нет
При вычислениях CRC использовались нулевые сэмплы : Да
Интерфейс : Встроенный Win32-интерфейс для Win NT/2000

Выходной формат : Внутренние WAV-операции
Формат сэмплов : 44.100 Гц; 16 бит; стерео

TOC извлечённого CD

Трек | Старт | Длительность | Начальный сектор | Конечный сектор
---------------------------------------------------------------------
1 | 0:00.00 | 5:34.69 | 0 | 25118
2 | 5:34.69 | 1:58.35 | 25119 | 34003
3 | 7:33.29 | 7:36.64 | 34004 | 68267
4 | 15:10.18 | 3:35.54 | 68268 | 84446
5 | 18:45.72 | 6:52.25 | 84447 | 115371
6 | 25:38.22 | 18:00.19 | 115372 | 196390
7 | 43:38.41 | 3:36.05 | 196391 | 212595
8 | 47:14.46 | 1:08.43 | 212596 | 217738
9 | 48:23.14 | 2:52.15 | 217739 | 230653
10 | 51:15.29 | 0:58.06 | 230654 | 235009
11 | 52:13.35 | 2:13.04 | 235010 | 244988
12 | 54:26.39 | 4:54.56 | 244989 | 267094

Характеристики диапазона извлечения и сообщения об ошибках

Выбранный диапазон

Имя файла C:\Users\Сергулет\Documents\Хор монастыря Ватопед-2 - Божественная Литургия-2.wav

Пиковый уровень 100.0 %
Качество диапазона 99.9 %
CRC копии 8EA77103
Копирование... OK

Ошибок не произошло

Конец отчёта
Download

Войдите на сайт, чтобы увидеть полную информацию.

Как скачивать  ·   Правила трекера

[Профиль]  [ЛС] 

simrik

Стаж: 8 лет 2 месяца

Сообщений: 72

Откуда: киев

Ukraine

post 03-Ноя-2009 01:08 (спустя 1 месяц 19 дней)

[Цитировать] 

Спасибо!!!! SUPER
[Профиль]  [ЛС] 

pavlos

Стаж: 8 лет 2 месяца

Сообщений: 5

post 16-Ноя-2009 02:01 (спустя 13 дней)

[Цитировать] 

Благодарю за великолепную музыку.
Вы не могли бы выложить сканы обложки этого альбома?
(максимально возможного разрешения)
[Профиль]  [ЛС] 

СЕРГУЛЕТ

Стаж: 8 лет 8 месяцев

Сообщений: 2640

Откуда: LA ROMANA

Dominicanrep

post 16-Ноя-2009 02:14 (спустя 12 минут)

[Цитировать] 

pavlos
Спасибо. Там коробка подарочная, тяжко сканировать.
[Профиль]  [ЛС] 

Надежда Вишнякова

Стаж: 6 лет 8 месяцев

Сообщений: 21

Откуда: Тамбовская область

post 04-Фев-2011 21:28 (спустя 1 год 2 месяца)

[Цитировать] 

СЕРГУЛЕТ примите мою сердечную благодарность))) мы очень долго искали запись "Достойно есть", чтобы можно было спеть близко к оригиналу - вы нам подарили эту возможность. спаси вас Господи!
[Профиль]  [ЛС] 

Александр440

post 15-Фев-2011 19:18 (спустя 10 дней)

[Цитировать] 

Большое спасибо!!!
 

vika010288

Стаж: 8 лет 3 месяца

Сообщений: 458

Georgia

post 30-Июн-2011 22:02 (спустя 4 месяца 15 дней)

[Цитировать] 

СЕРГУЛЕТ-берегите себя,ВЫ нужный ПРАВТОР-у!!!
[Профиль]  [ЛС] 

shapkolyubov

post 24-Апр-2012 21:16 (спустя 9 месяцев)

[Цитировать] 

Спаси Вас, Господи!!!
 

Alex Sag

Стаж: 8 лет 4 месяца

Сообщений: 281

Kazakhstan

post 28-Мар-2014 10:26 (спустя 1 год 11 месяцев)

[Цитировать] 

Спаси Господи!

_________________
Alexey
[Профиль]  [ЛС] 

soom2014

Стаж: 3 года 4 месяца

Сообщений: 4

Ukraine

post 30-Ноя-2014 09:47 (спустя 8 месяцев)

[Цитировать] 

Дайте пожалуста скорости.СПАСИ ГОСПОДИ!!!
[Профиль]  [ЛС] 

stepan-frunze

Стаж: 8 лет 7 месяцев

Сообщений: 2564

Russia

post 19-Фев-2015 02:34 (спустя 2 месяца 18 дней)

[Цитировать] 

Спаси Вас, Господи!!!
[Профиль]  [ЛС] 

fifthempire

Стаж: 1 год 7 месяцев

Сообщений: 7

post 20-Фев-2017 12:56 (спустя 2 года)

[Цитировать] 

Можно раздать?
[Профиль]  [ЛС] 
Показать сообщения:    
Ответить на тему

Текущее время: 18-Окт 00:19

Часовой пояс: GMT + 4



Вы не можете начинать темы
Вы не можете отвечать на сообщения
Вы не можете редактировать свои сообщения
Вы не можете удалять свои сообщения
Вы не можете голосовать в опросах
Вы не можете прикреплять файлы к сообщениям
Вы не можете скачивать файлы