Loading...
Error

(Церковные хоры.) Мужской Хор "Валаам" - Полтава (К 300-летию Полтавской битвы) - 2009, APE (image + .cue), lossless

Ответить на тему
Статистика раздачи
   
 
Автор Сообщение

СЕРГУЛЕТ

Стаж: 12 лет

Сообщений: 2637

Откуда: LA ROMANA

Dominicanrep

post 11-Сен-2009 22:22

[Цитировать] 

Мужской Хор "Валаам" - Полтава (К 300-летию Полтавской битвы)
pic
Страна: Россия. "IMLab"
Жанр: Церковные хоры
Год выпуска: 2009
Формат: APE (image + .cue)
Битрейт аудио: lossless
Продолжительность: 01:15:24
Трэклист:
01. Полтавская битва 24:06
02. Пою премудрого Российского Героя 1:06
03. Заздравный орёл 0:47
04. Полтава 14:44
05. Слово перед проклятием Мазепы, произнесённое митрополитом Стефаном Яворским в Московском Успенском соборе 12 ноября 1708 г. 4:27
06. Пишет, пишет Карла Шведский 2:04
07. Король Шведский и Мазепа 1:15
08. Была тяжёлая пора... 1:40
09. Полтава 3:03
10. Знают турки нас и шведы! 1:33
11. Над Шведской могилой под Полтавой 3:12
12. Полтава 4:54
13. Мы верно служили при Русских Царях! 3:04
14. Полтавский бой 2:35
15. Приказ Петра I перед Полтавской битвой 1:39
16. Было дело под Полтавой 5:22

EAC log
Exact Audio Copy V0.99 prebeta 5 from 4. May 2009

Отчёт EAC об извлечении, выполненном 11. сентября 2009, 22:01

Хор "Валаам". / Полтава

Дисковод: ASUS BC-1205PT Adapter: 1 ID: 0

Режим чтения : Достоверность
Использование точного потока : Да
Отключение кэша аудио : Да
Использование указателей C2 : Нет

Коррекция смещения при чтении : 667
Способность читать области Lead-in и Lead-out : Нет
Заполнение пропущенных сэмплов тишиной : Да
Удаление блоков с тишиной в начале и конце : Нет
При вычислениях CRC использовались нулевые сэмплы : Да
Интерфейс : Встроенный Win32-интерфейс для Win NT/2000

Выходной формат : Внутренние WAV-операции
Формат сэмплов : 44.100 Гц; 16 бит; стерео

TOC извлечённого CD

Трек | Старт | Длительность | Начальный сектор | Конечный сектор
---------------------------------------------------------------------
1 | 0:00.00 | 24:05.48 | 0 | 108422
2 | 24:05.48 | 1:05.74 | 108423 | 113371
3 | 25:11.47 | 0:46.01 | 113372 | 116822
4 | 25:57.48 | 14:43.26 | 116823 | 183073
5 | 40:40.74 | 4:26.24 | 183074 | 203047
6 | 45:07.23 | 2:03.27 | 203048 | 212299
7 | 47:10.50 | 1:14.69 | 212300 | 217918
8 | 48:25.44 | 1:39.38 | 217919 | 225381
9 | 50:05.07 | 3:02.61 | 225382 | 239092
10 | 53:07.68 | 1:32.04 | 239093 | 245996
11 | 54:39.72 | 3:11.09 | 245997 | 260330
12 | 57:51.06 | 4:53.26 | 260331 | 282331
13 | 62:44.32 | 3:03.57 | 282332 | 296113
14 | 65:48.14 | 2:34.31 | 296114 | 307694
15 | 68:22.45 | 1:38.17 | 307695 | 315061
16 | 70:00.62 | 5:21.57 | 315062 | 339193

Характеристики диапазона извлечения и сообщения об ошибках

Выбранный диапазон

Имя файла C:\Users\Сергулет\Documents\Хор Валаам . - Полтава.wav

Пиковый уровень 97.7 %
Качество диапазона 100.0 %
CRC копии 2B9202E7
Копирование... OK

Ошибок не произошло

Конец отчёта

Обложки и содержание
picpic

Download

Войдите на сайт, чтобы увидеть полную информацию.

Как скачивать  ·   Правила трекера

[Профиль]  [ЛС] 

post 06-Апр-2021 11:01 (спустя 11 лет)

Топик был перенесен из форума Архив аудио-раздач в форум Церковная музыка и церковные хоры (lossless)

CEPBEP4
 
Показать сообщения:    
Ответить на тему

Текущее время: 19-Апр 14:16

Часовой пояс: GMT + 4



Вы не можете начинать темы
Вы не можете отвечать на сообщения
Вы не можете редактировать свои сообщения
Вы не можете удалять свои сообщения
Вы не можете голосовать в опросах
Вы не можете прикреплять файлы к сообщениям
Вы не можете скачивать файлы