Loading...
Error

(Деяния - Акафист - Молитвы) Архистратиг Михаил и непобедимое Воинство Небесное - 2008, FLAC (tracks), lossless

Страницы:  1, 2  След.

Ответить на тему
Статистика раздачи
   
 
Автор Сообщение

andrejpushkaryov

Модератор

Стаж: 8 лет 6 месяцев

Сообщений: 1012

Откуда: Ижевск

Russia

post 10-Сен-2009 18:56

[Цитировать] 

Архистратиг Михаил и непобедимое Воинство Небесное

pic
Страна: Россия
Жанр: Деяния - Акафист - Молитвы
Год выпуска: 2008
Формат: FLAC (tracks)
Битрейт аудио: lossless
Продолжительность: 79 мин. 14 сек.

Трэклист:
Деяния
01 - Ангельский мир 7:46
02 - Святой Архангел Михаил 8:30
03 - Чудный покровитель земли Русской 10:59
Акафист
04 - Начало молебного пения 5:22
05 - Акафист архистратигу Михаилу 35:33
06 - Молитвы после акафиста 11:09


Дополнительная информация: Исполняют: Схиигумен Илий (Ноздрин) духовник Свято-Введенской Оптиной пустыни и хор Государственной Третьяковской галереи под управлением заслуженного артиста России Алексея Пузакова. Текст деяний прочитан Алексеем Ковалёвым.
Издательство ООО «Деоника», 2008 год
EAC Log
Exact Audio Copy V0.99 prebeta 5 from 4. May 2009

Отчёт EAC об извлечении, выполненном 10. сентября 2009, 16:16

Unknown Artist / Архистратиг Михаил

Дисковод: _NEC DVD_RW ND-4570A Adapter: 0 ID: 1

Режим чтения : Достоверность
Использование точного потока : Да
Отключение кэша аудио : Нет
Использование указателей C2 : Нет

Комбинированное смещение чтения/записи : 0
Способность читать области Lead-in и Lead-out : Нет
Заполнение пропущенных сэмплов тишиной : Да
Удаление блоков с тишиной в начале и конце : Нет
При вычислениях CRC использовались нулевые сэмплы : Да
Интерфейс : Установленный внешний ASPI-интерфейс
Обработка зазоров : Не обнаружено, добавлено к предыдущему треку

Выходной формат : Внутренние WAV-операции
Формат сэмплов : 44.100 Гц; 16 бит; стерео

TOC извлечённого CD

Трек | Старт | Длительность | Начальный сектор | Конечный сектор
---------------------------------------------------------------------
1 | 0:00.00 | 7:46.38 | 0 | 34987
2 | 7:46.38 | 8:03.27 | 34988 | 71239
3 | 15:49.65 | 10:59.21 | 71240 | 120685
4 | 26:49.11 | 5:22.20 | 120686 | 144855
5 | 32:11.31 | 35:55.17 | 144856 | 306497
6 | 68:06.48 | 11:09.74 | 306498 | 356746

Трек 1

Имя файла G:\Новая папка\01. Track01.wav

Пиковый уровень 89.1 %
Качество трека 100.0 %
CRC копии 887C0210
Копирование... OK

Трек 2

Имя файла G:\Новая папка\02. Track02.wav

Пиковый уровень 89.1 %
Качество трека 100.0 %
CRC копии CB0F5EF6
Копирование... OK

Трек 3

Имя файла G:\Новая папка\03. Track03.wav

Пиковый уровень 89.1 %
Качество трека 100.0 %
CRC копии 41FB11AE
Копирование... OK

Трек 4

Имя файла G:\Новая папка\04. Track04.wav

Пиковый уровень 89.1 %
Качество трека 100.0 %
CRC копии 788AEE10
Копирование... OK

Трек 5

Имя файла G:\Новая папка\05. Track05.wav

Пиковый уровень 89.1 %
Качество трека 100.0 %
CRC копии 0D113289
Копирование... OK

Трек 6

Имя файла G:\Новая папка\06. Track06.wav

Пиковый уровень 89.1 %
Качество трека 100.0 %
CRC копии 005CCCDC
Копирование... OK

Ошибок не произошло

Конец отчёта
Обложка
pic
pic
Диск
pic
Download

Войдите на сайт, чтобы увидеть полную информацию.

Как скачивать  ·   Правила трекера



Последний раз редактировалось: andrejpushkaryov (2015-06-20 16:19), всего редактировалось 3 раз(а)
[Профиль]  [ЛС] 

leksus

Стаж: 8 лет 6 месяцев

Сообщений: 113

Russia

post 10-Сен-2009 19:16 (спустя 20 минут)

[Цитировать] 

Спаси Господи ! да еще в исполнении о. Илии
[Профиль]  [ЛС] 

andrejpushkaryov

Модератор

Стаж: 8 лет 6 месяцев

Сообщений: 1012

Откуда: Ижевск

Russia

post 10-Сен-2009 19:24 (спустя 8 минут)

[Цитировать] 

Во Славу Божию и к празднику Архистратига !
[Профиль]  [ЛС] 

leksus

Стаж: 8 лет 6 месяцев

Сообщений: 113

Russia

post 10-Сен-2009 19:25 (спустя 1 минута)

[Цитировать] 

да ...как раз кстати..и главное во время
[Профиль]  [ЛС] 

leksus

Стаж: 8 лет 6 месяцев

Сообщений: 113

Russia

post 10-Сен-2009 19:26 (спустя 54 секунды)

[Цитировать] 

только правда еще не проверено
[Профиль]  [ЛС] 

Аркадий

Стаж: 8 лет 3 месяца

Сообщений: 41

post 13-Фев-2010 00:32 (спустя 5 месяцев 2 дня)

[Цитировать] 

Спасибо!
[Профиль]  [ЛС] 

Странник1

Стаж: 7 лет 10 месяцев

Сообщений: 2308

Russia

post 23-Дек-2010 10:27 (спустя 10 месяцев)

[Цитировать] 

Спасибо!
[Профиль]  [ЛС] 

Царевна196

post 21-Июл-2011 00:48 (спустя 6 месяцев)

[Цитировать] 

СПАСИБО ОГРОМНОЕ! ЭТО СИЛЬНАЯ ВЕЩЬ ПРОТИВ ЗЛА.
 

derik

Стаж: 7 лет 5 месяцев

Сообщений: 54

Откуда: Белгород

Russia

post 13-Дек-2011 00:48 (спустя 4 месяца 23 дня)

[Цитировать] 

превелико благодарен!
[Профиль]  [ЛС] 

geo902

Стаж: 5 лет

Сообщений: 12

Откуда: москва

Russia

post 06-Май-2013 21:54 (спустя 1 год 4 месяца)

[Цитировать] 

СПАСИБО !
[Профиль]  [ЛС] 

RuGaZa

Стаж: 3 года 4 месяца

Сообщений: 10

Russia

post 19-Авг-2014 19:21 (спустя 1 год 3 месяца)

[Цитировать] 

Огромное спасибо!
[Профиль]  [ЛС] 

depeche1976

Стаж: 4 года 10 месяцев

Сообщений: 7

Ukraine

post 01-Дек-2014 17:40 (спустя 3 месяца 11 дней)

[Цитировать] 

Благодарствую!

_________________
depeche1111
[Профиль]  [ЛС] 

Кириченко Денис

Стаж: 5 лет 11 месяцев

Сообщений: 93

Kazakhstan

post 08-Фев-2015 08:21 (спустя 2 месяца 6 дней)

[Цитировать] 

Спаси Господи!
[Профиль]  [ЛС] 

stepan-frunze

Стаж: 8 лет 7 месяцев

Сообщений: 2564

Russia

post 19-Фев-2015 02:49 (спустя 10 дней)

[Цитировать] 

Спаси Господи !
[Профиль]  [ЛС] 

ksprayer

Стаж: 3 года 1 месяц

Сообщений: 166

Belarus

post 24-Июл-2015 20:56 (спустя 5 месяцев 5 дней)

[Цитировать] 

спаси Господи
[Профиль]  [ЛС] 
Показать сообщения:    
Ответить на тему

Текущее время: 22-Окт 01:25

Часовой пояс: GMT + 4



Вы не можете начинать темы
Вы не можете отвечать на сообщения
Вы не можете редактировать свои сообщения
Вы не можете удалять свои сообщения
Вы не можете голосовать в опросах
Вы не можете прикреплять файлы к сообщениям
Вы не можете скачивать файлы