Loading...
Error

(Церковная музыка и церковные хоры (lossless).) "Песнопения в исполнении о. Дионисиоса Фирфириса", протопсалта Протата Святой Горы Афон. Диск №1. Запись 1982 года.- 2006, APE (image + .cue), lossless

Ответить на тему
Статистика раздачи
no
   
 
Автор Сообщение

СЕРГУЛЕТ

Стаж: 8 лет 3 месяца

Сообщений: 2639

Откуда: LA ROMANA

Dominicanrep

post 04-Сен-2009 09:08

[Цитировать] 

"Песнопения в исполнении о. Дионисиоса Фирфириса", протопсалта Протата Святой Горы Афон. Диск №1. Запись 1982 года.

pic
Страна: Греция.
Жанр: Церковная музыка и церковные хоры (lossless).
Год выпуска: 2006
Формат: APE (image + .cue)
Битрейт аудио: lossless
Продолжительность: 00:59:06
Трэклист:
1. Аниксандарии
2. Господи, воззвах…
3. Стихословие и стихиры самогласны Сретения
4. Тропарь Афонским святым
5. Тропарь Афанасию Афонскому
6. Степенны, 1-ый антифон
7. Славословие
8. Тропари молебного канона
9. «Слава» и кратима полиелея «Слово благо»
Содержание+Обложки
picpic
EAC log
Exact Audio Copy V0.99 prebeta 5 from 4. May 2009

Отчёт EAC об извлечении, выполненном 4. сентября 2009, 8:06

Дионисиос Фирвирис / Песнопения

Дисковод: ASUS BC-1205PT Adapter: 1 ID: 0

Режим чтения : Достоверность
Использование точного потока : Да
Отключение кэша аудио : Да
Использование указателей C2 : Нет

Коррекция смещения при чтении : 667
Способность читать области Lead-in и Lead-out : Нет
Заполнение пропущенных сэмплов тишиной : Да
Удаление блоков с тишиной в начале и конце : Нет
При вычислениях CRC использовались нулевые сэмплы : Да
Интерфейс : Встроенный Win32-интерфейс для Win NT/2000

Выходной формат : Внутренние WAV-операции
Формат сэмплов : 44.100 Гц; 16 бит; стерео

TOC извлечённого CD

Трек | Старт | Длительность | Начальный сектор | Конечный сектор
---------------------------------------------------------------------
1 | 0:00.00 | 14:44.40 | 0 | 66339
2 | 14:44.40 | 6:03.37 | 66340 | 93601
3 | 20:48.02 | 5:53.74 | 93602 | 120150
4 | 26:42.01 | 1:48.70 | 120151 | 128320
5 | 28:30.71 | 1:33.46 | 128321 | 135341
6 | 30:04.42 | 7:41.35 | 135342 | 169951
7 | 37:46.02 | 6:37.07 | 169952 | 199733
8 | 44:23.09 | 3:30.73 | 199734 | 215556
9 | 47:54.07 | 11:10.21 | 215557 | 265827

Характеристики диапазона извлечения и сообщения об ошибках

Выбранный диапазон

Имя файла C:\Users\Сергулет\Documents\Дионисиос Фирвирис - Песнопения.wav

Пиковый уровень 96.1 %
Качество диапазона 100.0 %
CRC копии 0F7B352C
Копирование... OK

Ошибок не произошло

Конец отчёта
Download

Войдите для скачивания торрент-файла

Как скачивать  ·   Правила трекера



Последний раз редактировалось: СЕРГУЛЕТ (2010-03-14 13:14), всего редактировалось 1 раз
[Профиль]  [ЛС] 

Manul

Стаж: 7 лет 9 месяцев

Сообщений: 155

Ussr

post 04-Сен-2009 10:16 (спустя 1 час 8 минут)

[Цитировать] 

СЕРГУЛЕТ
Вас не затруднит в папке с рипом сохранять и скан обложки?
[Профиль]  [ЛС] 

СЕРГУЛЕТ

Стаж: 8 лет 3 месяца

Сообщений: 2639

Откуда: LA ROMANA

Dominicanrep

post 04-Сен-2009 12:25 (спустя 2 часа 8 минут)

[Цитировать] 

Manul
Это пожелание на будущее, или вам нужна именно эта обложка???
[Профиль]  [ЛС] 

Manul

Стаж: 7 лет 9 месяцев

Сообщений: 155

Ussr

post 04-Сен-2009 16:17 (спустя 3 часа)

[Цитировать] 

СЕРГУЛЕТ
На будущее Smile

И вообще, сударь, я за Вами не успеваю Laughing
[Профиль]  [ЛС] 

sadhu

Стаж: 8 лет 3 месяца

Сообщений: 55

Russia

post 04-Сен-2009 17:33 (спустя 1 час 15 минут)

[Цитировать] 

да, ув. СЕРГУЛЕТ, пожалуйста большая просьба включайте в папки с файлами хотя бы обложку с альбома..
а за материал - низкий вам поклон, такие редкости и в таком качестве, спасибо!
[Профиль]  [ЛС] 

mrixz

post 27-Май-2010 22:22 (спустя 8 месяцев)

[Цитировать] 

спасиба, присоединяюсь!!!
 

Alex.aka.Domination

post 28-Май-2010 12:27 (спустя 14 часов)

[Цитировать] 

Спасибо
 
Показать сообщения:    
Ответить на тему

Текущее время: 26-Май 00:07

Часовой пояс: GMT + 4



Вы не можете начинать темы
Вы не можете отвечать на сообщения
Вы не можете редактировать свои сообщения
Вы не можете удалять свои сообщения
Вы не можете голосовать в опросах
Вы не можете прикреплять файлы к сообщениям
Вы не можете скачивать файлы