Loading...
Error

(Церковная музыка Греции, Афона и Сербии (lossless)) "Песнопения агрипнии в день перенесения мощей св. вмч. Георгия Победоносца" Келия св. Георгия, Керасья, Афон - 2008, APE (image + .cue), lossless

Ответить на тему
Статистика раздачи
   
 
Автор Сообщение

СЕРГУЛЕТ

Стаж: 12 лет

Сообщений: 2637

Откуда: LA ROMANA

Dominicanrep

post 02-Сен-2009 22:49

[Цитировать] 

"Песнопения агрипнии в день перенесения мощей св. вмч. Георгия Победоносца" Келия св. Георгия, Керасья, Афон
pic
Страна: Греция
Жанр: Церковная музыка Греции, Афона и Сербии
Год выпуска: 2008
Формат: APE (image + .cue)
Битрейт аудио: lossless
Продолжительность: 01:15:44
Наличие сканов: да
Трэклист:
01. Вся премудростию…
02. Господи, воззвах…
03. Воскресные стихиры
04. Стихиры святого
05. Стихословие
06. Свете тихий… Прокимен
07. Стихиры на стиховне
08. Богородице Дево…
09. Богати обнищаше…
10. Раби Господа…
11. Исповедайтеся…
12. Слава… Молитвами апостолов… Воскрес Иисус…
13. Благословенны
14. Каноны воскресный и святого
15. Всякое дыхание
16. Воскресные стихиры
17. Стихиры святого
18. Трисвятое. Динамис
19. Тропарь святого

EAC log
Exact Audio Copy V1.0 beta 2 from 29. April 2011

Отчёт EAC об извлечении, выполненном 5. июля 2011, 22:57

Хор / Келия Св. Георгия Керасья

Дисковод: ASUS DRW-2014L1T Adapter: 2 ID: 1

Режим чтения : Достоверность
Использование точного потока : Да
Отключение кэша аудио : Да
Использование указателей C2 : Нет

Коррекция смещения при чтении : 6
Способность читать области Lead-in и Lead-out : Нет
Заполнение пропущенных сэмплов тишиной : Да
Удаление блоков с тишиной в начале и конце : Нет
При вычислениях CRC использовались нулевые сэмплы : Да
Интерфейс : Встроенный Win32-интерфейс для Win NT/2000

Выходной формат : Внутренние WAV-операции
Формат сэмплов : 44.100 Гц; 16 бит; стерео

TOC извлечённого CD

Трек | Старт | Длительность | Начальный сектор | Конечный сектор
---------------------------------------------------------------------
1 | 0:00.00 | 3:45.68 | 0 | 16942
2 | 3:45.68 | 4:47.70 | 16943 | 38537
3 | 8:33.63 | 1:44.36 | 38538 | 46373
4 | 10:18.24 | 1:54.38 | 46374 | 54961
5 | 12:12.62 | 15:39.66 | 54962 | 125452
6 | 27:52.53 | 2:10.58 | 125453 | 135260
7 | 30:03.36 | 3:35.04 | 135261 | 151389
8 | 33:38.40 | 2:31.74 | 151390 | 162788
9 | 36:10.39 | 1:19.16 | 162789 | 168729
10 | 37:29.55 | 5:23.20 | 168730 | 192974
11 | 42:53.00 | 4:48.68 | 192975 | 214642
12 | 47:41.68 | 3:04.05 | 214643 | 228447
13 | 50:45.73 | 2:49.32 | 228448 | 241154
14 | 53:35.30 | 6:41.33 | 241155 | 271262
15 | 60:16.63 | 3:14.64 | 271263 | 285876
16 | 63:31.52 | 2:32.69 | 285877 | 297345
17 | 66:04.46 | 2:39.56 | 297346 | 309326
18 | 68:44.27 | 6:17.48 | 309327 | 337649
19 | 75:02.00 | 0:41.66 | 337650 | 340790

Характеристики диапазона извлечения и сообщения об ошибках

Выбранный диапазон

Имя файла C:\Хор - Келия Св. Георгия Керасья.wav

Пиковый уровень 100.0 %
Скорость извлечения 8.8 X
Качество диапазона 100.0 %
CRC копии CB3B2F29
Копирование... OK

Ошибок не произошло

Конец отчёта

==== Контрольная сумма отчёта 593B941231146B9E6CA94B4FD42ABD577D9514C08E7B13E767980601DCBFDCA4 ====

Обложки и содержание
picpicpic

Download

Войдите на сайт, чтобы увидеть полную информацию.

Как скачивать  ·   Правила трекера



Последний раз редактировалось: СЕРГУЛЕТ (2011-07-05 23:31), всего редактировалось 1 раз
[Профиль]  [ЛС] 
Показать сообщения:    
Ответить на тему

Текущее время: 27-Фев 17:33

Часовой пояс: GMT + 4



Вы не можете начинать темы
Вы не можете отвечать на сообщения
Вы не можете редактировать свои сообщения
Вы не можете удалять свои сообщения
Вы не можете голосовать в опросах
Вы не можете прикреплять файлы к сообщениям
Вы не можете скачивать файлы