Loading...
Error

(Церковная музыка и церковные хоры) о. Пантелеимон Картсонас - Богородице Дево - 2004, APE (image + .cue), lossless

Ответить на тему
Статистика раздачи
   
 
Автор Сообщение

СЕРГУЛЕТ

Стаж: 12 лет

Сообщений: 2637

Откуда: LA ROMANA

Dominicanrep

post 31-Авг-2009 23:52

[Цитировать] 

о. Пантелеимон Картсонас - Богородице Дево
pic
Страна: Греция
Жанр: Церковная музыка Греции, Афона и Сербии (lossless)
Год выпуска: 2004
Формат: APE (image + .cue)
Битрейт аудио: lossless
Продолжительность: 00:53:56
Наличие сканов: да
Трэклист:
01. Богородице Дево…
02. Мария…
03. И благословен…
04. Яко Спаса родила еси…
05. Душ наших…
06. Радуйся Благодатная…
07. Благословенна Ты в женах…
08. Плод чрева Твоего…
09. Душ наших…
10. Благословенны (медленно)

EAC log
Exact Audio Copy V0.99 prebeta 5 from 4. May 2009

Отчёт EAC об извлечении, выполненном 31. августа 2009, 23:46

о. Пантелеимон Картсонас / "Богородице Дево"

Дисковод: ASUS BC-1205PT Adapter: 1 ID: 0

Режим чтения : Достоверность
Использование точного потока : Да
Отключение кэша аудио : Да
Использование указателей C2 : Нет

Коррекция смещения при чтении : 667
Способность читать области Lead-in и Lead-out : Нет
Заполнение пропущенных сэмплов тишиной : Да
Удаление блоков с тишиной в начале и конце : Нет
При вычислениях CRC использовались нулевые сэмплы : Да
Интерфейс : Встроенный Win32-интерфейс для Win NT/2000

Выходной формат : Внутренние WAV-операции
Формат сэмплов : 44.100 Гц; 16 бит; стерео

TOC извлечённого CD

Трек | Старт | Длительность | Начальный сектор | Конечный сектор
---------------------------------------------------------------------
1 | 0:00.00 | 5:04.34 | 0 | 22833
2 | 5:04.34 | 4:19.55 | 22834 | 42313
3 | 9:24.14 | 5:27.09 | 42314 | 66847
4 | 14:51.23 | 6:48.36 | 66848 | 97483
5 | 21:39.59 | 0:56.08 | 97484 | 101691
6 | 22:35.67 | 4:49.10 | 101692 | 123376
7 | 27:25.02 | 5:12.61 | 123377 | 146837
8 | 32:37.63 | 5:43.00 | 146838 | 172562
9 | 38:20.63 | 8:26.62 | 172563 | 210574
10 | 46:47.50 | 7:07.22 | 210575 | 242621

Характеристики диапазона извлечения и сообщения об ошибках

Выбранный диапазон

Имя файла C:\Users\Сергулет\Documents\о. Пантелеимон Картсонас - Богородице Дево.wav

Пиковый уровень 100.0 %
Качество диапазона 100.0 %
CRC копии 32E68CF7
Копирование... OK

Ошибок не произошло

Конец отчёта

Обложки и содержание
picpic

Дополнительная информация
Калива св. Георгия - Святая Гора Афон. «Богородице Дево» и благословенны. Поёт о. Пантелеимон Картсонас. Живая запись.

Download

Войдите на сайт, чтобы увидеть полную информацию.

Как скачивать  ·   Правила трекера

[Профиль]  [ЛС] 

post 06-Апр-2021 09:54 (спустя 11 лет)

Топик был перенесен из форума Архив аудио-раздач в форум Церковная музыка Греции, Афона и Сербии (lossless)

CEPBEP4
 
Показать сообщения:    
Ответить на тему

Текущее время: 19-Апр 14:36

Часовой пояс: GMT + 4



Вы не можете начинать темы
Вы не можете отвечать на сообщения
Вы не можете редактировать свои сообщения
Вы не можете удалять свои сообщения
Вы не можете голосовать в опросах
Вы не можете прикреплять файлы к сообщениям
Вы не можете скачивать файлы