Loading...
Error

От восток солнца до запад. Братский хор Киево-Печерской Лавры. Регент иеродиакон Геронтий(Борисевич) - 2005, FLAC (image + .cue)+ mp3 320 Kbps

Ответить на тему
Статистика раздачи
Скачали: [ 4 ]
   
 
Автор Сообщение

сервп62

Стаж: 8 лет 3 месяца

Сообщений: 303

post 27-Авг-2009 21:18

[Цитировать] 

От восток солнца до запад. Божественная Литургия.
Братский хор Свято-Успенской Киево-Печерской Лавры.
Регент иеродиакон Геронтий(Борисевич)
pic
Страна: Украина (Киево-Печерская Лавра)
Жанр: Духовные песни
Год выпуска: 2005
Формат:: FLAC (image + .cue) + MP3
Битрейт аудио: lossless + 320 Kbps
Дополнительно: В папке lossless выложены flac и cue файлы, в папке mp3 выложены файлы mp3 с битрейтом 320 Kbps, в папке обложки приложены сканы обложек и диска в разрешении 300 dpi
При добавлении закачки выбираем соответствующие папки
список песен
01. От Восток Солнца до Запад... Музыка архимандрита Матфея 1:06
02. Тон Деспотин Знаменный распев 0:46
03. Мирная ектения Киево-Печерский распев 7:41
04. Благослови, душе моя, Господа Изложение иеродиакона Геронтия 2:14
05. Хвали, душе моя, Господа Изложение иеродиакона Геронтия 2:27
06. Единородный Сыне Музыка П. Чеснокова 2:10
07. Во Царствии Твоем... Музыка П. Мироносицкого 4:01
08. Тропарь Успению Пресвятой Богородицы Музыка А. Бессарабова 1:28
09. Трисвятое Киево-Печерский распев 3:33
10. Херувимская песнь Музыка Г. Львовского 5:21
11. Милость мира Музыка В. Орлова 4:36
12. Достойно Есть... Киево-Печерский распев 2:14
13. Кондак Иверской иконе Божией Матери Киево-Печерский распев 2:28
14. Многолетие Румынский распев 0:44
15. Исполла эти деспота Музыка М. Литвиненко 1:18
отчёт EAC об извлечении
Exact Audio Copy V0.99 prebeta 4 from 23. January 2008

Отчёт EAC об извлечении, выполненном 27. августа 2009, 11:33

Unknown Artist / Unknown Title

Дисковод: HL-DT-STDVDRAM GSA-4163B Adapter: 0 ID: 1

Режим чтения : Достоверность
Использование точного потока : Да
Отключение кэша аудио : Нет
Использование указателей C2 : Да

Комбинированное смещение чтения/записи : 0
Способность читать области Lead-in и Lead-out : Нет
Заполнение пропущенных сэмплов тишиной : Да
Удаление блоков с тишиной в начале и конце : Нет
При вычислениях CRC использовались нулевые сэмплы : Да
Интерфейс : Установленный внешний ASPI-интерфейс

Выходной формат : Внутренние WAV-операции
Формат сэмплов : 44.100 Гц; 16 бит; стерео

TOC извлечённого CD

Трек | Старт | Длительность | Начальный сектор | Конечный сектор
---------------------------------------------------------------------
1 | 0:00.00 | 1:06.16 | 0 | 4965
2 | 1:06.16 | 0:46.34 | 4966 | 8449
3 | 1:52.50 | 7:41.44 | 8450 | 43068
4 | 9:34.19 | 2:14.32 | 43069 | 53150
5 | 11:48.51 | 2:26.72 | 53151 | 64172
6 | 14:15.48 | 2:10.55 | 64173 | 73977
7 | 16:26.28 | 4:01.08 | 73978 | 92060
8 | 20:27.36 | 1:28.47 | 92061 | 98707
9 | 21:56.08 | 3:33.19 | 98708 | 114701
10 | 25:29.27 | 5:21.45 | 114702 | 138821
11 | 30:50.72 | 4:36.27 | 138822 | 159548
12 | 35:27.24 | 2:14.08 | 159549 | 169606
13 | 37:41.32 | 2:28.42 | 169607 | 180748
14 | 40:09.74 | 0:44.48 | 180749 | 184096
15 | 40:54.47 | 1:18.72 | 184097 | 190018

Характеристики диапазона извлечения и сообщения об ошибках

Выбранный диапазон

Имя файла D:\архив\От восток солнца до запад\Unknown Artist - Unknown Title.wav

Пиковый уровень 96.6 %
Качество диапазона 99.9 %
CRC копии 331E4418
Копирование... OK

Ошибок не произошло

Конец отчёта
Download

Войдите для скачивания торрент-файла

Как скачивать  ·   Правила трекера

[Профиль]  [ЛС] 

spikerQ

Стаж: 8 лет

Сообщений: 7

Russia

post 28-Авг-2009 23:16 (спустя 1 день 1 час)

[Цитировать] 

Спасибо большое!
[Профиль]  [ЛС] 

neofit

Стаж: 7 лет 1 месяц

Сообщений: 18

Ukraine

post 04-Май-2010 02:00 (спустя 8 месяцев)

[Цитировать] 

СПАСИ ГОСПОДИ!
[Профиль]  [ЛС] 

Антон_из_тольятти

post 18-Июл-2010 21:21 (спустя 2 месяца 14 дней)

[Цитировать] 

Скорость маленькая!
 

shymsknik

Стаж: 6 лет 4 месяца

Сообщений: 179

Russia

post 21-Окт-2011 02:21 (спустя 1 год 3 месяца)

[Цитировать] 

Благодарю, брат! Храни тебя Бог!
[Профиль]  [ЛС] 

gavrik.s

Стаж: 5 лет 4 месяца

Сообщений: 85

post 31-Дек-2011 12:49 (спустя 2 месяца 10 дней)

[Цитировать] 

Спасибо!
[Профиль]  [ЛС] 
Показать сообщения:    
Ответить на тему

Текущее время: 22-Май 21:21

Часовой пояс: GMT + 4



Вы не можете начинать темы
Вы не можете отвечать на сообщения
Вы не можете редактировать свои сообщения
Вы не можете удалять свои сообщения
Вы не можете голосовать в опросах
Вы не можете прикреплять файлы к сообщениям
Вы не можете скачивать файлы