Loading...
Error

Кижи в узоре времён [2007, торжество Православия, DVDRip]

Ответить на тему
Статистика раздачи
   
 
Автор Сообщение

royalstag

Стаж: 5 лет 5 месяцев

Сообщений: 561

Russia

post 07-Апр-2021 00:12

[Цитировать] 

Кижи в узоре времён

pic
Дата/Год выпуска: 2007
Страна: Россия
Жанр: торжество Православия
Продолжительность: 00:25:30 + 00:14:21
Перевод: Не требуется
Русские субтитры: нет
Оригинальная аудиодорожка: русский

Описание: В фильме изящным узором переплелись давние и нынешние времена острова Кижи. Узор, в котором мифы и легенды, реальные события из прошлого, настоящего и будущего неразрывно связаны нитями. Нитями, что соединили на Кижском погосте века и тысячелетия. Вы узнаете, что притягивает тысячи людей в этот сказочный, затерянный в кижский островной мир. Особую атмосферу в фильме создают старинные русские народные песни и колоритная авторская фолк-музыка . Вы окунетесь в глубь веков, почувствуете дух самобытной России. Вы заглянете в Святая Святых - Пребраженскую церковь, и с высоты птичьего полета насладитесь удивительной красотой острова. Украшением фильма стало яркое красочное слайд-шоу, которое познакомит Вас с самыми укромными уголками заповедного острова, куда не ступала нога человека. Откройте для себя среди полутора тысяч островов в голубых просторах Онего-озера тот единственный и неповторимый остров Кижи... Ансамбль Кижского погоста состоит из трех зданий — Преображенской церкви (1714), Покровской церкви (1764) и стоящей между ними колокольни, потроенной в 1874 году на месте более старого сооружения. Их окружает деревянная ограда. Несмотря на то, что все здания построены в разное время и имеют разную архитектуру, они не выглядят нагромождением построек, а образуют художественное целое. В 1994 году освящен Покровский храм, а в августе этого же года появился настоятель Спасо-Преображенского прихода о. Николай.

качество: DVDRip
формат: AVI
Видео: MPEG4, XviD, 704x528 (4:3), 25.000 fps, 2 264 Kbps (0.244 bit/pixel)
Аудио: AC-3, 48.0 KHz, 2 ch, 192 Kbps, CBR
Список выпусков/серий
Кижи в узоре времён
Слайдшоу
MediaInfo
[pre]
General
Complete name : C:\Users\User\Downloads\Кижи в узоре времён\Кижи в узоре времён.avi
Format : AVI
Format/Info : Audio Video Interleave
File size : 450 MiB
Duration : 25mn 30s
Overall bit rate : 2 466 Kbps
Writing application : VirtualDubMod 1.5.10.2 (build 2540/release)
Writing library : VirtualDubMod build 2540/release

Video
ID : 0
Format : MPEG-4 Visual
Format profile : Advanced Simple@L5
Format settings, BVOP : 4
Format settings, QPel : No
Format settings, GMC : No warppoints
Format settings, Matrix : Custom
Codec ID : XVID
Codec ID/Hint : XviD
Duration : 25mn 30s
Bit rate : 2 264 Kbps
Width : 704 pixels
Height : 528 pixels
Display aspect ratio : 4:3
Frame rate : 25.000 fps
Color space : YUV
Chroma subsampling : 4:2:0
Bit depth : 8 bits
Scan type : Progressive
Compression mode : Lossy
Bits/(Pixel*Frame) : 0.244
Stream size : 413 MiB (92%)
Writing library : XviD 1.2.1 (UTC 2008-12-04)

Audio
ID : 1
Format : AC-3
Format/Info : Audio Coding 3
Mode extension : CM (complete main)
Format settings, Endianness : Big
Codec ID : 2000
Duration : 25mn 29s
Bit rate mode : Constant
Bit rate : 192 Kbps
Channel(s) : 2 channels
Channel positions : Front: L R
Sampling rate : 48.0 KHz
Bit depth : 16 bits
Compression mode : Lossy
Stream size : 35.0 MiB (8%)
Alignment : Split accross interleaves
Interleave, duration : 40 ms (1.00 video frame)
Interleave, preload duration : 500 ms

[/pre]
Скриншоты
pic pic pic pic
pic
Download

Войдите на сайт, чтобы увидеть полную информацию.

Как скачивать  ·   Правила трекера

[Профиль]  [ЛС] 

Игорь I

Стаж: 11 лет

Сообщений: 2049

Russia

post 08-Апр-2021 22:31 (спустя 1 день 22 часа)

[Цитировать] 

Благодарю
[Профиль]  [ЛС] 
Показать сообщения:    
Ответить на тему

Текущее время: 19-Апр 00:27

Часовой пояс: GMT + 4



Вы не можете начинать темы
Вы не можете отвечать на сообщения
Вы не можете редактировать свои сообщения
Вы не можете удалять свои сообщения
Вы не можете голосовать в опросах
Вы не можете прикреплять файлы к сообщениям
Вы не можете скачивать файлы