Loading...
Error

(Церковная музыка Греции, Афона и Сербии (lossless)) Choir of Convent of the Annunciation, Ormylia - Akatalipton Esti - 1992, FLAC (image + .cue), lossless

Ответить на тему
Статистика раздачи
   
 
Автор Сообщение

CEPBEP4

Стаж: 10 лет

Сообщений: 186

Откуда: ОРЕНБУРГ

Russia

post 27-Фев-2021 00:22

[Цитировать] 

Choir of Convent of the Annunciation, Ormylia - Akatalipton Esti
pic
Страна: Греция
Жанр: Церковная музыка Греции, Афона и Сербии (lossless)
Год выпуска: 1992
Формат: FLAC (image + .cue)
Битрейт аудио: lossless
Продолжительность: 01:13:48
Наличие сканов: да
Трэклист:
01. Bells, talanta, simantra
02. That which is fulfilled in thee is beyond the understanding of angels; Tone 3
03. Gabriel, as he cried unto thee; Tone 3
04. Come, O ye people; Tone 2 & Virginity is alien to motherhood; Tone 8
05. Hail, Theotokos Virgin; Tone 5
06. It is meet, in truth, to call thee blessed; Tone 1
07. Talanto
08. Blessed is the man; Tone 5
09. I shall open my mouth; Tone 4
10. What shall we offer Thee; Tone 2
11. A strange wonder it was; Tone 7 enharmonic
12. What shall we render unto the Lord; Tone 7
13. Glory... Blood and fire; Tone 8
14. The Typika; Tone 1
15. Archangel, where thy grace overshadows
16. The world. Alleluia
17. My heart is steadfast, O God; Tone 5

EAC log
Exact Audio Copy V1.0 beta 6 from 9. April 2015

EAC extraction logfile from 31. August 2015, 10:04

Choir of Convent of the Annunciation, Ormylia / Akatalipton Esti: That which is fulfilled in thee is beyond the understanding of angels

Used drive : TSSTcorpCDDVDW SH-224DB Adapter: 1 ID: 0

Read mode : Secure
Utilize accurate stream : Yes
Defeat audio cache : Yes
Make use of C2 pointers : No

Read offset correction : 6
Overread into Lead-In and Lead-Out : No
Fill up missing offset samples with silence : Yes
Delete leading and trailing silent blocks : No
Null samples used in CRC calculations : Yes
Used interface : Native Win32 interface for Win NT & 2000

Used output format : User Defined Encoder
Selected bitrate : 1024 kBit/s
Quality : High
Add ID3 tag : No
Command line compressor : C:\Program Files (x86)\Exact Audio Copy\FLAC\FLAC.EXE
Additional command line options : -6 -V -T "ARTIST=%artist%" -T "TITLE=%title%" -T "ALBUM=%albumtitle%" -T "DATE=%year%" -T "TRACKNUMBER=%tracknr%" -T "GENRE=%genre%" -T "COMMENT=%comment%" -T "BAND=%albuminterpret%" -T "ALBUMARTIST=%albuminterpret%" -T "COMPOSER=%composer%" %haslyrics%--tag-from-file=LYRICS="%lyricsfile%"%haslyrics% -T "DISCNUMBER=%cdnumber%" -T "TOTALDISCS=%totalcds%" -T "TOTALTRACKS=%numtracks%" %hascover%--picture="%coverfile%"%hascover% %source% -o %dest%

TOC of the extracted CD

Track | Start | Length | Start sector | End sector
---------------------------------------------------------
1 | 0:00.00 | 0:18.65 | 0 | 1414
2 | 0:18.65 | 7:18.19 | 1415 | 34283
3 | 7:37.09 | 2:52.48 | 34284 | 47231
4 | 10:29.57 | 6:24.14 | 47232 | 76045
5 | 16:53.71 | 2:50.27 | 76046 | 88822
6 | 19:44.23 | 2:47.52 | 88823 | 101399
7 | 22:32.00 | 0:11.49 | 101400 | 102273
8 | 22:43.49 | 6:48.56 | 102274 | 132929
9 | 29:32.30 | 5:06.16 | 132930 | 155895
10 | 34:38.46 | 2:17.30 | 155896 | 166200
11 | 36:56.01 | 3:36.62 | 166201 | 182462
12 | 40:32.63 | 2:19.15 | 182463 | 192902
13 | 42:52.03 | 4:12.62 | 192903 | 211864
14 | 47:04.65 | 8:44.08 | 211865 | 251172
15 | 55:48.73 | 3:49.18 | 251173 | 268365
16 | 59:38.16 | 7:28.67 | 268366 | 302032
17 | 67:07.08 | 6:40.63 | 302033 | 332095

Range status and errors

Selected range

Filename F:\MUSIC-RIP\001-100\090-100\092. Choir of Convent of the Annunciation-Ormylia.MediaFire.NE.VO PRIPREMA\upload\Choir of Convent of the Annunciation, Ormylia - Akatalipton Esti.wav

Peak level 85.2 %
Extraction speed 7.0 X
Range quality 100.0 %
Copy CRC F5248CB7
Copy OK

No errors occurred

AccurateRip summary
Track 1 not present in database
Track 2 not present in database
Track 3 not present in database
Track 4 not present in database
Track 5 not present in database
Track 6 not present in database
Track 7 not present in database
Track 8 not present in database
Track 9 not present in database
Track 10 not present in database
Track 11 not present in database
Track 12 not present in database
Track 13 not present in database
Track 14 not present in database
Track 15 not present in database
Track 16 not present in database
Track 17 not present in database
None of the tracks are present in the AccurateRip database

End of status report

---- CUETools DB Plugin V2.1.6

[CTDB TOCID: LbNpCMLvcW2POj.XlxmYPB0BrnY-] disk not present in database
Submit result: LbNpCMLvcW2POj.XlxmYPB0BrnY- has been uploaded

==== Log checksum A112AB002DF8A1DD2921763C6E623F2E9876E051A9A61F453B549F4A4458BB99 ====

Обложки и содержание
pic pic pic pic pic

Дополнительная информация
Хор Благовещенского монастыря Ормилия / Акаталиптон Эсти: То, что исполняется в тебе, выше понимания ангелов...

Святой Благовещенский монастырь в Ормилии, Халкидики, является подворьем Святого монастыря Симонопетра на горе Афон. Хор, поющий различные напевы для Божией Матери и праздничные напевы, состоит из 35 монахинь.
Хормейстер: иеромонах Григорий Симонопетрский.
Записано в Свято-Благовещенском монастыре Ормилии в октябре 1992 года. Фонографическая студия "Эчогенниси": П. Каламбакас.

Download

Войдите на сайт, чтобы увидеть полную информацию.

Как скачивать  ·   Правила трекера

[Профиль]  [ЛС] 
Показать сообщения:    
Ответить на тему

Текущее время: 24-Июл 04:46

Часовой пояс: GMT + 4



Вы не можете начинать темы
Вы не можете отвечать на сообщения
Вы не можете редактировать свои сообщения
Вы не можете удалять свои сообщения
Вы не можете голосовать в опросах
Вы не можете прикреплять файлы к сообщениям
Вы не можете скачивать файлы