Loading...
Error

(Православные песнопения) Песнопения русского зарубежья - Хор Минского Свято-Петро-Павловского собора. Регент Ирина Денисова - 2013, FLAC (image + .cue), lossless

Ответить на тему
Статистика раздачи
   
 
Автор Сообщение

Petrorin

Стаж: 2 месяца

Сообщений: 29

post 06-Дек-2020 21:06

[Цитировать] 

Хор Минского Свято-Петро-Павловского собора. Регент Ирина Денисова / Песнопения русского зарубежья

pic
Жанр: православные песнопения
Носитель: CD
Страна: Белоруссия
Год издания: 2013
Формат: FLAC (image + .cue)
Битрейт аудио: lossless
Продолжительность: 01:12:23
Источник: собственный рип
Наличие сканов: да
Треклист:
01. Предначинательный псалом. — Киевский распев, гармонизация Н. Кедрова (сына), перелож. И. Денисовой
02. «Блажен муж». — Обиходное, гармонизация Н. Кедрова (сына)
03. Господи воззвах, глас 1. — Киевский распев, гармонизация Б. Ледковского
04. Богородичен догматик, глас 1. — Знаменный распев, гармонизация Н. Кедрова (сына)
05. Прокимен «Се ныне благословите Господа», глас 8. — Знаменный распев, гармонизация М. Константинова
06. «Богородице, Дево, радуйся». — Киевский распев, гармонизация Б. Ледковского
07. «Хвалите имя Господне». — Сокращенный знаменный распев, гармонизация Б. Ледковского
08. Величание св. Иоанну, Шанхайскому и Сан-Францисскому Чудотворцу. — Знаменный распев, гармонизация Б. Ледковского
09. «От юности моея». — Греческий распев, гармонизация М. Константинова
10. Прокимен на утрени, глас 7. — Знаменный распев, гармонизация М. Константинова
11. Ирмосы канона Благовещению Пресвятой Богородицы «Отверзу уста моя», глас 4. — Гармонизация Б. Ледковского
12. «Величит душа моя Господа». — Н. Кедрова (отца)
13. «Взбранной Воеводе». — Б. Ледковского
14. «Благослови, душе моя, Господа» (1-й антифон). — И. Колчина
15. Трисвятое. — Знаменный распев, гармонизация Б. Ледковского
16. Херувимская песнь. — М. Константинова
17. «Милость мира». — Знаменный распев, гармонизация М. Ковалевского
18. Просительная ектенья. — Н. Кедрова (отца)
19. «Отче наш». — Н. Кедрова (сына)
20. Светилен Благовещения. — Л. Ильяшенко
21. «Разбойника благоразумного». — М. Константинова
22. «Чертог Твой». — Киевский распев, гармонизация архиепископа Гавриила (Чепуры)
23. Запричастный стих Великой субботы. — Б. Ледковского
24. «Плотию уснув». — Греческий распев, гармонизация А. Глазунова
25. Пасхальный прокимен, глас 8 «Сей день, егоже сотвори Господь». — Знаменный распев, гармонизация Н. Кедрова (отца)
26. Стихиры Пасхи. — Знаменный распев, гармонизация архиепископа Гавриила (Чепуры)
Лог создания рипа
Exact Audio Copy V1.5 from 20. February 2020

Отчёт EAC об извлечении, выполненном 26. ноября 2020, 17:19

Хор Минского Свято-Петро-Павловского собора. Регент И. Денисова / Песнопения русского зарубежья

Дисковод: HL-DT-STDVDRAM GH22NS40 Adapter: 1 ID: 0

Режим чтения : Достоверность
Использование точного потока : Да
Отключение кэша аудио : Да
Использование указателей C2 : Нет

Коррекция смещения при чтении : 667
Способность читать области Lead-in и Lead-out : Нет
Заполнение пропущенных сэмплов тишиной : Да
Удаление блоков с тишиной в начале и конце : Нет
При вычислениях CRC использовались нулевые сэмплы : Да
Интерфейс : Встроенный Win32-интерфейс для Win NT/2000

Выходной формат : Пользовательский кодировщик
Выбранный битрейт : 1024 kBit/s
Качество : Высокий
Добавление ID3-тега : Нет
Утилита сжатия : C:\Program Files (x86)\Exact Audio Copy\Flac\flac.exe
Дополнительные параметры : -V -8 -T "Date=%year%" -T "Genre=%genre%" %source%

TOC извлечённого CD

Трек | Старт | Длительность | Начальный сектор | Конечный сектор
---------------------------------------------------------------------
1 | 0:00.00 | 4:19.53 | 0 | 19477
2 | 4:19.53 | 2:38.72 | 19478 | 31399
3 | 6:58.50 | 2:14.57 | 31400 | 41506
4 | 9:13.32 | 4:16.29 | 41507 | 60735
5 | 13:29.61 | 1:33.65 | 60736 | 67775
6 | 15:03.51 | 0:54.34 | 67776 | 71859
7 | 15:58.10 | 1:38.19 | 71860 | 79228
8 | 17:36.29 | 1:12.45 | 79229 | 84673
9 | 18:48.74 | 3:10.34 | 84674 | 98957
10 | 21:59.33 | 1:25.55 | 98958 | 105387
11 | 23:25.13 | 1:21.11 | 105388 | 111473
12 | 24:46.24 | 3:01.53 | 111474 | 125101
13 | 27:48.02 | 1:29.68 | 125102 | 131844
14 | 29:17.70 | 2:41.74 | 131845 | 143993
15 | 31:59.69 | 2:39.36 | 143994 | 155954
16 | 34:39.30 | 5:50.66 | 155955 | 182270
17 | 40:30.21 | 5:57.18 | 182271 | 209063
18 | 46:27.39 | 3:25.02 | 209064 | 224440
19 | 49:52.41 | 1:54.42 | 224441 | 233032
20 | 51:47.08 | 1:33.73 | 233033 | 240080
21 | 53:21.06 | 3:25.21 | 240081 | 255476
22 | 56:46.27 | 3:03.74 | 255477 | 269275
23 | 59:50.26 | 2:22.28 | 269276 | 279953
24 | 62:12.54 | 1:35.64 | 279954 | 287142
25 | 63:48.43 | 1:51.22 | 287143 | 295489
26 | 65:39.65 | 6:42.33 | 295490 | 325672

Характеристики диапазона извлечения и сообщения об ошибках

Выбранный диапазон

Имя файла I:\5. EAC\Песнопения русского зарубежья.wav

Пиковый уровень 93.0 %
Скорость извлечения 2.1 X
Качество диапазона 100.0 %
CRC теста 1F0BDFC7
CRC копии 1F0BDFC7
Копирование... OK

Ошибок не произошло

AccurateRip: сводка

Трек 1 отсутствует в базе данных
Трек 2 отсутствует в базе данных
Трек 3 отсутствует в базе данных
Трек 4 отсутствует в базе данных
Трек 5 отсутствует в базе данных
Трек 6 отсутствует в базе данных
Трек 7 отсутствует в базе данных
Трек 8 отсутствует в базе данных
Трек 9 отсутствует в базе данных
Трек 10 отсутствует в базе данных
Трек 11 отсутствует в базе данных
Трек 12 отсутствует в базе данных
Трек 13 отсутствует в базе данных
Трек 14 отсутствует в базе данных
Трек 15 отсутствует в базе данных
Трек 16 отсутствует в базе данных
Трек 17 отсутствует в базе данных
Трек 18 отсутствует в базе данных
Трек 19 отсутствует в базе данных
Трек 20 отсутствует в базе данных
Трек 21 отсутствует в базе данных
Трек 22 отсутствует в базе данных
Трек 23 отсутствует в базе данных
Трек 24 отсутствует в базе данных
Трек 25 отсутствует в базе данных
Трек 26 отсутствует в базе данных

Ни одного трека нет в базе AccurateRip

Конец отчёта

==== Контрольная сумма отчёта 92216198C744174941684722A59AA69CC5CF7D0212E8735B03AB0FC63EF2AB87 ====
Содержание индексной карты (.CUE)
REM GENRE "Православные песнопения"
REM DATE 2013
REM DISCID 6310F61A
REM COMMENT "ExactAudioCopy v1.5"
PERFORMER "Хор Минского Свято-Петро-Павловского собора. Регент И. Денисова"
TITLE "Песнопения русского зарубежья"
REM COMPOSER ""
FILE "Песнопения русского зарубежья.flac" WAVE
TRACK 01 AUDIO
TITLE "Предначинательный псалом. — Киевский распев, гармонизация Н. Кедрова (сына), переложение И. Денисовой"
PERFORMER "Хор Минского Свято-Петро-Павловского собора. Регент И. Денисова"
REM COMPOSER ""
FLAGS DCP
INDEX 01 00:00:00
TRACK 02 AUDIO
TITLE "'Блажен муж'. — Обиходное, гармонизация Н. Кедрова (сына)"
PERFORMER "Хор Минского Свято-Петро-Павловского собора. Регент И. Денисова"
REM COMPOSER ""
FLAGS DCP
INDEX 01 04:19:53
TRACK 03 AUDIO
TITLE "Господи воззвах, глас 1. — Киевский распев, гармонизация Б. Ледковского"
PERFORMER "Хор Минского Свято-Петро-Павловского собора. Регент И. Денисова"
REM COMPOSER ""
FLAGS DCP
INDEX 01 06:58:50
TRACK 04 AUDIO
TITLE "Богородичен догматик, глас 1. — Знаменный распев, гармонизация Н. Кедрова (сына)"
PERFORMER "Хор Минского Свято-Петро-Павловского собора. Регент И. Денисова"
REM COMPOSER ""
FLAGS DCP
INDEX 01 09:13:32
TRACK 05 AUDIO
TITLE "Прокимен 'Се ныне благословите Господа', глас 8. — Знаменный распев, гармонизация М. Константинова"
PERFORMER "Хор Минского Свято-Петро-Павловского собора. Регент И. Денисова"
REM COMPOSER ""
FLAGS DCP
INDEX 01 13:29:61
TRACK 06 AUDIO
TITLE "'Богородице, Дево, радуйся'. — Киевский распев, гармонизация Б. Ледковского"
PERFORMER "Хор Минского Свято-Петро-Павловского собора. Регент И. Денисова"
REM COMPOSER ""
FLAGS DCP
INDEX 01 15:03:51
TRACK 07 AUDIO
TITLE "'Хвалите имя Господне'. — Сокращенный знаменный распев, гармонизация Б. Ледковского"
PERFORMER "Хор Минского Свято-Петро-Павловского собора. Регент И. Денисова"
REM COMPOSER ""
FLAGS DCP
INDEX 01 15:58:10
TRACK 08 AUDIO
TITLE "Величание св. Иоанну, Шанхайскому и Сан-Францисскому Чудотворцу. — Знаменный распев, гармонизация Б. Ледковского"
PERFORMER "Хор Минского Свято-Петро-Павловского собора. Регент И. Денисова"
REM COMPOSER ""
FLAGS DCP
INDEX 01 17:36:29
TRACK 09 AUDIO
TITLE "'От юности моея'. — Греческий распев, гармонизация М. Константинова"
PERFORMER "Хор Минского Свято-Петро-Павловского собора. Регент И. Денисова"
REM COMPOSER ""
FLAGS DCP
INDEX 01 18:48:74
TRACK 10 AUDIO
TITLE "Прокимен на утрени, глас 7. — Знаменный распев, гармонизация М. Константинова"
PERFORMER "Хор Минского Свято-Петро-Павловского собора. Регент И. Денисова"
REM COMPOSER ""
FLAGS DCP
INDEX 01 21:59:33
TRACK 11 AUDIO
TITLE "Ирмосы канона Благовещению Пресвятой Богородицы 'Отверзу уста моя', глас 4. — Гармонизация Б. Ледковского"
PERFORMER "Хор Минского Свято-Петро-Павловского собора. Регент И. Денисова"
REM COMPOSER ""
FLAGS DCP
INDEX 01 23:25:13
TRACK 12 AUDIO
TITLE "'Величит душа моя Господа'. — Н. Кедрова (отца)"
PERFORMER "Хор Минского Свято-Петро-Павловского собора. Регент И. Денисова"
REM COMPOSER ""
FLAGS DCP
INDEX 01 24:46:24
TRACK 13 AUDIO
TITLE "'Взбранной Воеводе'. — Б. Ледковского"
PERFORMER "Хор Минского Свято-Петро-Павловского собора. Регент И. Денисова"
REM COMPOSER ""
FLAGS DCP
INDEX 01 27:48:02
TRACK 14 AUDIO
TITLE "'Благослови, душе моя, Господа' (1-й антифон). — И. Колчина"
PERFORMER "Хор Минского Свято-Петро-Павловского собора. Регент И. Денисова"
REM COMPOSER ""
FLAGS DCP
INDEX 01 29:17:70
TRACK 15 AUDIO
TITLE "Трисвятое. — Знаменный распев, гармонизация Б. Ледковского"
PERFORMER "Хор Минского Свято-Петро-Павловского собора. Регент И. Денисова"
REM COMPOSER ""
FLAGS DCP
INDEX 01 31:59:69
TRACK 16 AUDIO
TITLE "Херувимская песнь. — М. Константинова"
PERFORMER "Хор Минского Свято-Петро-Павловского собора. Регент И. Денисова"
REM COMPOSER ""
FLAGS DCP
INDEX 01 34:39:30
TRACK 17 AUDIO
TITLE "'Милость мира'. — Знаменный распев, гармонизация М. Ковалевского"
PERFORMER "Хор Минского Свято-Петро-Павловского собора. Регент И. Денисова"
REM COMPOSER ""
FLAGS DCP
INDEX 01 40:30:21
TRACK 18 AUDIO
TITLE "Просительная ектенья. — Н. Кедрова (отца)"
PERFORMER "Хор Минского Свято-Петро-Павловского собора. Регент И. Денисова"
REM COMPOSER ""
FLAGS DCP
INDEX 01 46:27:39
TRACK 19 AUDIO
TITLE "'Отче наш'. — Н. Кедрова (сына)"
PERFORMER "Хор Минского Свято-Петро-Павловского собора. Регент И. Денисова"
REM COMPOSER ""
FLAGS DCP
INDEX 01 49:52:41
TRACK 20 AUDIO
TITLE "Светилен Благовещения. — Л. Ильяшенко"
PERFORMER "Хор Минского Свято-Петро-Павловского собора. Регент И. Денисова"
REM COMPOSER ""
FLAGS DCP
INDEX 01 51:47:08
TRACK 21 AUDIO
TITLE "'Разбойника благоразумного'. — М. Константинова"
PERFORMER "Хор Минского Свято-Петро-Павловского собора. Регент И. Денисова"
REM COMPOSER ""
FLAGS DCP
INDEX 01 53:21:06
TRACK 22 AUDIO
TITLE "'Чертог Твой'. — Киевский распев, гармонизация архиепископа Гавриила (Чепуры)"
PERFORMER "Хор Минского Свято-Петро-Павловского собора. Регент И. Денисова"
REM COMPOSER ""
FLAGS DCP
INDEX 01 56:46:27
TRACK 23 AUDIO
TITLE "Запричастный стих Великой субботы. — Б. Ледковского"
PERFORMER "Хор Минского Свято-Петро-Павловского собора. Регент И. Денисова"
REM COMPOSER ""
FLAGS DCP
INDEX 01 59:50:26
TRACK 24 AUDIO
TITLE "'Плотию уснув'. — Греческий распев, гармонизация А. Глазунова"
PERFORMER "Хор Минского Свято-Петро-Павловского собора. Регент И. Денисова"
REM COMPOSER ""
FLAGS DCP
INDEX 01 62:12:54
TRACK 25 AUDIO
TITLE "Пасхальный прокимен, глас 8 'Сей день, егоже сотвори Господь'. — Знаменный распев, гармонизация Н. Кедрова (отца)"
PERFORMER "Хор Минского Свято-Петро-Павловского собора. Регент И. Денисова"
REM COMPOSER ""
FLAGS DCP
INDEX 01 63:48:43
TRACK 26 AUDIO
TITLE "Стихиры Пасхи. — Знаменный распев, гармонизация архиепископа Гавриила (Чепуры)"
PERFORMER "Хор Минского Свято-Петро-Павловского собора. Регент И. Денисова"
REM COMPOSER ""
FLAGS DCP
INDEX 01 65:39:65
Логи проверки качества
Лог fooCDtect
fooCDtect - foobar2000 + auCDtect, baralgin.

auCDtect: CD records authenticity detector, version 0.8.2
Copyright (c) 2004 Oleg Berngardt. All rights reserved.
Copyright (c) 2004 Alexander Djourik. All rights reserved.

mode: 0

===========================================
Track: Песнопения русского зарубежья

Processing file: [Песнопения русского зарубежья.aucdtect]
Detected average hi-boundary frequency: 2.026777e+004 Hz
Detected average lo-boundary frequency: 1.276260e+004 Hz
Detected average hi-cut frequency: 2.025420e+004 Hz
Detected average lo-cut frequency: 5.982960e+003 Hz
Maximum probablis boundary frequency: 2.189100e+004 Hz
Coefficient of nonlinearity of a phase: 2.817242e-001
First order smothness: 3.498888e-001
Second order smothness: 6.553428e-001

------------------------------------------------------------
This track looks like MPEG with probability 89%

===========================================
Лог Dynamic Range Meter
foobar2000 1.5.5 / Dynamic Range Meter 1.1.1
log date: 2020-11-26 17:52:42

--------------------------------------------------------------------------------
Statistics for: ?-Песнопения русского зарубежья
Number of samples: 191495724
Duration: 1:12:22
--------------------------------------------------------------------------------

Left Right

Peak Value: -0.63 dB --- -1.20 dB
Avg RMS: -21.82 dB --- -21.82 dB
DR channel: 15.94 dB --- 15.10 dB
--------------------------------------------------------------------------------

Official DR Value: DR16

Samplerate: 44100 Hz
Channels: 2
Bits per sample: 16
Bitrate: 541 kbps
Codec: FLAC
================================================================================
Tracks Tau Analyzer pic
fooCDtect pic
DR Meter pic
Скриншоты спектра частот
Spectrogram auCDtect TM pic
Spectrum Tau Analyzer pic
Frequency Tau Analyzer pic
Об альбоме
Посвящается блаженной памяти архиепископа Шанхайского и Сан-Францисского Иоанна (Максимовича)
pic


Download

Войдите на сайт, чтобы увидеть полную информацию.

Как скачивать  ·   Правила трекера


_________________
«…В жизни у меня только одна задача – храм этот оберегать и богатства его приумножать. Каждый кирпичик этого храма, каждая вечная книга, каждая вечная мелодия несут в себе спрессованный опыт человечества, мысли его и мысли о нём…» (~Стругацкие)
[Профиль]  [ЛС] 
Показать сообщения:    
Ответить на тему

Текущее время: 19-Янв 12:20

Часовой пояс: GMT + 4



Вы не можете начинать темы
Вы не можете отвечать на сообщения
Вы не можете редактировать свои сообщения
Вы не можете удалять свои сообщения
Вы не можете голосовать в опросах
Вы не можете прикреплять файлы к сообщениям
Вы не можете скачивать файлы