Loading...
Error

(Православные песнопения) Надо всеми Бог - Братский хор Свято-Елисаветинского монастыря. Регент Евгений Прокофьев - 2019, FLAC (image + .cue), lossless

Ответить на тему
Статистика раздачи
   
 
Автор Сообщение

Petrorin

Стаж: 5 месяцев

Сообщений: 30

post 06-Дек-2020 20:26

[Цитировать] 

Братский хор Свято-Елисаветинского монастыря. Регент Евгений Прокофьев / Надо всеми Бог

pic
Жанр: православные песнопения
Носитель: CD
Страна: Белоруссия
Год издания: 2019
Формат: FLAC (image + .cue)
Битрейт аудио: lossless
Продолжительность: 00:53:39
Источник: собственный рип
Наличие сканов: да
Треклист:
01. Предначинательный псалом. — Валаамский распев (Proemial Psalm. — Valaam chant)
02. Блажен муж. — Киевский распев (Blessed Is the Man. — Kievan chant)
03. Свете Тихий. — Валаамский распев (O Gladsome Light. — Valaam chant)
04. Полиелей. — Византийский распев (Polieley. — Byzantine chant)
05. Архангельский глас. — Знаменное двухголосие. Рукопись XVII в. (With the Angel's Song. — Znamenny chant)
06. Величит душа Моя Господа. — Валаамский распев (My Soul Doth Magnify Thee. — Valaam chant)
07. Приидите, поклонимся. — Византийский распев (Come Let Us Worship. — Byzantine chant)
08. Тропарь Божией Матери пред иконой Ея 'Державная'. — Валаамский распев, глас 4 (Troparion to the 'Reigning' Icon of the Mother of God. — Valaam chant, tone 4)
09. Трисвятое. — Знаменный распев, глас 6 (Trisagion. — Znamenny chant, tone 6)
10. Кресту Твоему. — Знаменный распев (Before Thy Cross. — Znamenny chant)
11. Херувимская песнь. — Строчное многоголосие (Cherubic Hymn. — Linear polyphony)
12. Херувимская песнь. — Византийский распев (Cherubic Hymn. — Byzantine chant)
13. Милость мира (Mercy of Peace)
14. Достойно есть. — Валаамский распев ("Трапезное") (It Is Truly Meet. — Valaam chant)
15. О Тебе радуется. — Греческий распев (All Creation Rejoices in Thee. — Greek chant)
16. Видехом свет истинный. — Валаамский распев (We Have Seen the True Light. — Valaam chant)
17. Когда молод был (древнерусский духовный стих) (When I Was Young)
18. О числах (старообрядческий духовный стих) (Numbers)
Лог создания рипа
Exact Audio Copy V1.5 from 20. February 2020

Отчёт EAC об извлечении, выполненном 22. ноября 2020, 10:23

Братский хор Свято-Елисаветинского монастыря / Надо всеми Бог

Дисковод: HL-DT-STDVDRAM GH22NS40 Adapter: 1 ID: 0

Режим чтения : Достоверность
Использование точного потока : Да
Отключение кэша аудио : Да
Использование указателей C2 : Нет

Коррекция смещения при чтении : 667
Способность читать области Lead-in и Lead-out : Нет
Заполнение пропущенных сэмплов тишиной : Да
Удаление блоков с тишиной в начале и конце : Нет
При вычислениях CRC использовались нулевые сэмплы : Да
Интерфейс : Встроенный Win32-интерфейс для Win NT/2000

Выходной формат : Пользовательский кодировщик
Выбранный битрейт : 1024 kBit/s
Качество : Высокий
Добавление ID3-тега : Нет
Утилита сжатия : C:\Program Files (x86)\Exact Audio Copy\Flac\flac.exe
Дополнительные параметры : -V -8 -T "Date=%year%" -T "Genre=%genre%" %source%

TOC извлечённого CD

Трек | Старт | Длительность | Начальный сектор | Конечный сектор
---------------------------------------------------------------------
1 | 0:00.00 | 4:16.71 | 0 | 19270
2 | 4:16.71 | 2:44.56 | 19271 | 31626
3 | 7:01.52 | 2:11.65 | 31627 | 41516
4 | 9:13.42 | 3:31.13 | 41517 | 57354
5 | 12:44.55 | 0:57.57 | 57355 | 61686
6 | 13:42.37 | 3:25.28 | 61687 | 77089
7 | 17:07.65 | 0:30.44 | 77090 | 79383
8 | 17:38.34 | 1:02.66 | 79384 | 84099
9 | 18:41.25 | 1:45.22 | 84100 | 91996
10 | 20:26.47 | 2:27.33 | 91997 | 103054
11 | 22:54.05 | 4:46.31 | 103055 | 124535
12 | 27:40.36 | 5:36.35 | 124536 | 149770
13 | 33:16.71 | 6:07.30 | 149771 | 177325
14 | 39:24.26 | 1:39.56 | 177326 | 184806
15 | 41:04.07 | 3:20.08 | 184807 | 199814
16 | 44:24.15 | 1:34.59 | 199815 | 206923
17 | 45:58.74 | 3:31.38 | 206924 | 222786
18 | 49:30.37 | 4:08.11 | 222787 | 241397

Характеристики диапазона извлечения и сообщения об ошибках

Выбранный диапазон

Имя файла I:\5. EAC\Надо всеми Бог - Братский хор Свято-Елисаветинского монастыря - 2019.wav

Пиковый уровень 96.3 %
Скорость извлечения 1.9 X
Качество диапазона 100.0 %
CRC теста CFAA568E
CRC копии CFAA568E
Копирование... OK

Ошибок не произошло

AccurateRip: сводка

Трек 1 отсутствует в базе данных
Трек 2 отсутствует в базе данных
Трек 3 отсутствует в базе данных
Трек 4 отсутствует в базе данных
Трек 5 отсутствует в базе данных
Трек 6 отсутствует в базе данных
Трек 7 отсутствует в базе данных
Трек 8 отсутствует в базе данных
Трек 9 отсутствует в базе данных
Трек 10 отсутствует в базе данных
Трек 11 отсутствует в базе данных
Трек 12 отсутствует в базе данных
Трек 13 отсутствует в базе данных
Трек 14 отсутствует в базе данных
Трек 15 отсутствует в базе данных
Трек 16 отсутствует в базе данных
Трек 17 отсутствует в базе данных
Трек 18 отсутствует в базе данных

Ни одного трека нет в базе AccurateRip

Конец отчёта

==== Контрольная сумма отчёта 5BA01D956EC38A4868DCD410A1643751B080C94E64FA371B993FD836312F560F ====
Содержание индексной карты (.CUE)
REM GENRE "Православные песнопения"
REM DATE 2019
REM DISCID 070C9212
REM COMMENT "ExactAudioCopy v1.5"
PERFORMER "Братский хор Свято-Елисаветинского монастыря. Регент Евгений Прокофьев"
TITLE "Надо всеми Бог"
REM COMPOSER ""
FILE "Надо всеми Бог - Братский хор Свято-Елисаветинского монастыря - 2019.flac" WAVE
TRACK 01 AUDIO
TITLE "Предначинательный псалом. — Валаамский распев (Proemial Psalm. — Valaam chant)"
PERFORMER "Братский хор Свято-Елисаветинского монастыря"
REM COMPOSER ""
INDEX 01 00:00:00
TRACK 02 AUDIO
TITLE "Блажен муж. — Киевский распев (Blessed Is the Man. — Kievan chant)"
PERFORMER "Братский хор Свято-Елисаветинского монастыря"
REM COMPOSER ""
INDEX 01 04:16:71
TRACK 03 AUDIO
TITLE "Свете Тихий. — Валаамский распев (O Gladsome Light. — Valaam chant)"
PERFORMER "Братский хор Свято-Елисаветинского монастыря"
REM COMPOSER ""
INDEX 01 07:01:52
TRACK 04 AUDIO
TITLE "Полиелей. — Византийский распев (Polieley. — Byzantine chant)"
PERFORMER "Братский хор Свято-Елисаветинского монастыря"
REM COMPOSER ""
INDEX 01 09:13:42
TRACK 05 AUDIO
TITLE "Архангельский глас. — Знаменное двухголосие. Рукопись XVII века (With the Angel's Song. — Znamenny chant)"
PERFORMER "Братский хор Свято-Елисаветинского монастыря"
REM COMPOSER ""
INDEX 01 12:44:55
TRACK 06 AUDIO
TITLE "Величит душа Моя Господа. — Валаамский распев (My Soul Doth Magnify Thee. — Valaam chant)"
PERFORMER "Братский хор Свято-Елисаветинского монастыря"
REM COMPOSER ""
INDEX 01 13:42:37
TRACK 07 AUDIO
TITLE "Приидите, поклонимся. — Византийский распев (Come Let Us Worship. — Byzantine chant)"
PERFORMER "Братский хор Свято-Елисаветинского монастыря"
REM COMPOSER ""
INDEX 01 17:07:65
TRACK 08 AUDIO
TITLE "Тропарь Божией Матери пред иконой Ея 'Державная'. — Валаамский распев, глас 4 (Troparion to the 'Reigning' Icon of the Mother of God. — Valaam chant, tone 4)"
PERFORMER "Братский хор Свято-Елисаветинского монастыря"
REM COMPOSER ""
INDEX 01 17:38:34
TRACK 09 AUDIO
TITLE "Трисвятое. — Знаменный распев, глас 6 (Trisagion. — Znamenny chant, tone 6)"
PERFORMER "Братский хор Свято-Елисаветинского монастыря"
REM COMPOSER ""
INDEX 01 18:41:25
TRACK 10 AUDIO
TITLE "Кресту Твоему. — Знаменный распев (Before Thy Cross. — Znamenny chant)"
PERFORMER "Братский хор Свято-Елисаветинского монастыря"
REM COMPOSER ""
INDEX 01 20:26:47
TRACK 11 AUDIO
TITLE "Херувимская песнь. — Строчное многоголосие (Cherubic Hymn. — Linear polyphony)"
PERFORMER "Братский хор Свято-Елисаветинского монастыря"
REM COMPOSER ""
INDEX 01 22:54:05
TRACK 12 AUDIO
TITLE "Херувимская песнь. — Византийский распев (Cherubic Hymn. — Byzantine chant)"
PERFORMER "Братский хор Свято-Елисаветинского монастыря"
REM COMPOSER ""
INDEX 01 27:40:36
TRACK 13 AUDIO
TITLE "Милость мира"
PERFORMER "Братский хор Свято-Елисаветинского монастыря"
REM COMPOSER ""
INDEX 01 33:16:71
TRACK 14 AUDIO
TITLE "Достойно есть. — Валаамский распев ['Трапезное'] (It Is Truly Meet. — Valaam chant)"
PERFORMER "Братский хор Свято-Елисаветинского монастыря"
REM COMPOSER ""
INDEX 01 39:24:26
TRACK 15 AUDIO
TITLE "О Тебе радуется. — Греческий распев (All Creation Rejoices in Thee. — Greek chant)"
PERFORMER "Братский хор Свято-Елисаветинского монастыря"
REM COMPOSER ""
INDEX 01 41:04:07
TRACK 16 AUDIO
TITLE "Видехом свет истинный. — Валаамский распев (We Have Seen the True Light. — Valaam chant)"
PERFORMER "Братский хор Свято-Елисаветинского монастыря"
REM COMPOSER ""
INDEX 01 44:24:15
TRACK 17 AUDIO
TITLE "Когда молод был [древнерусский духовный стих] (When I Was Young [old russian spiritual verse])"
PERFORMER "Братский хор Свято-Елисаветинского монастыря"
REM COMPOSER ""
INDEX 01 45:58:74
TRACK 18 AUDIO
TITLE "О числах [старообрядческий духовный стих] (Numbers [old believer spiritual verse])"
PERFORMER "Братский хор Свято-Елисаветинского монастыря"
REM COMPOSER ""
INDEX 01 49:30:37
Логи проверки качества
Лог fooCDtect
fooCDtect - foobar2000 + auCDtect, baralgin.

auCDtect: CD records authenticity detector, version 0.8.2
Copyright (c) 2004 Oleg Berngardt. All rights reserved.
Copyright (c) 2004 Alexander Djourik. All rights reserved.

mode: 0

===========================================
Track: Надо всеми Бог - Братский хор Свято-Елисаветинского монастыря - 2019

Processing file: [Надо всеми Бог - Братский хор Свято-Елисаветинского монастыря - 2019.aucdtect]
Detected average hi-boundary frequency: 2.018121e+004 Hz
Detected average lo-boundary frequency: 1.332813e+004 Hz
Detected average hi-cut frequency: 2.090925e+004 Hz
Detected average lo-cut frequency: 9.090603e+003 Hz
Maximum probablis boundary frequency: 2.189100e+004 Hz
Coefficient of nonlinearity of a phase: 6.219772e-001
First order smothness: 2.847290e-001
Second order smothness: 7.662607e-001

------------------------------------------------------------
This track looks like CDDA with probability 99%

===========================================
Лог Dynamic Range Meter
foobar2000 1.5.5 / Dynamic Range Meter 1.1.1
log date: 2020-11-22 10:29:11

--------------------------------------------------------------------------------
Statistics for: ?-Надо всеми Бог - Братский хор Свято-Елисаветинского монастыря - 2019
Number of samples: 141942024
Duration: 53:39
--------------------------------------------------------------------------------

Left Right

Peak Value: -0.33 dB --- -0.33 dB
Avg RMS: -12.00 dB --- -12.36 dB
DR channel: 9.20 dB --- 9.45 dB
--------------------------------------------------------------------------------

Official DR Value: DR9

Samplerate: 44100 Hz
Channels: 2
Bits per sample: 16
Bitrate: 803 kbps
Codec: FLAC
================================================================================
fooCDtect pic
Tracks Tau Analyzer pic
DR Meter pic
Скриншоты спектра частот
Spectrogram auCDtect TM pic
Spectrum Tau Analyzer pic
Frequency Tau Analyzer pic
Об альбоме
Первый диск Братского хора открывает для нас поистине удивительный мир древнего церковного пения, душой которого является распев. Знаменный, валаамский, киевский, византийский распевы, аскетичные и архаичные, звучат в исполнении современных верующих молодых людей. Так через песнопения осуществляется связь времён, и в наш бурный мир приходит чистая древняя молитва.

This first album of the Male Choir introduces us to a truly amazing world of ancient church singing, with chants as its core. Znamenny, Valaam, Kievan, Byzantine chants, which are ascetic and archaic, are performed by contemporary Christian young men. In this way, the hymns bring together the ages, and a pure ancient prayer reaches our troubled world.
Доп. информация
Звукорежиссер: К. Карманов
Запись произведена в храме в честь иконы Божией Матери "Державная" г. Минск

Sound Director: K. Karmanov
Recorded at the Church in honour of the "Reigning" icon of the Mother of God, Minsk
Download

Войдите на сайт, чтобы увидеть полную информацию.

Как скачивать  ·   Правила трекера


_________________
«…В жизни у меня только одна задача – храм этот оберегать и богатства его приумножать. Каждый кирпичик этого храма, каждая вечная книга, каждая вечная мелодия несут в себе спрессованный опыт человечества, мысли его и мысли о нём…» (~Стругацкие)
[Профиль]  [ЛС] 

hhwwenoi

Стаж: 7 месяцев

Сообщений: 5

post 19-Мар-2021 22:47 (спустя 3 месяца 13 дней)

[Цитировать] 

Скачать c Яндекс.Диск
[Профиль]  [ЛС] 
Показать сообщения:    
Ответить на тему

Текущее время: 20-Апр 01:19

Часовой пояс: GMT + 4



Вы не можете начинать темы
Вы не можете отвечать на сообщения
Вы не можете редактировать свои сообщения
Вы не можете удалять свои сообщения
Вы не можете голосовать в опросах
Вы не можете прикреплять файлы к сообщениям
Вы не можете скачивать файлы