Loading...
Error

(Православные песнопения) Песнопения Великого поста - Сестры Свято-Елисаветинского монастыря - 2005, FLAC (image + .cue), lossless

Ответить на тему
Статистика раздачи
   
 
Автор Сообщение

Petrorin

Стаж: 4 месяца 29 дней

Сообщений: 30

post 06-Дек-2020 16:38

[Цитировать] 

Сестры Свято-Елисаветинского монастыря / Песнопения Великого поста

pic
Жанр: православные песнопения
Носитель: CD
Страна: Белоруссия-Россия
Год издания: 2005
Формат: FLAC (image + .cue)
Битрейт аудио: lossless
Продолжительность: 01:03:58
Источник: собственный рип
Наличие сканов: да
Треклист:
01. Мирная ектения. — Валаамский распев (Great Litany. — Valaam Chant)
02. Кондак Великого поста "Душе моя..." (Kontakion — My Soul...)
03. Приидите, ублажим Иосифа... (Come, Let Us Bless Jossif...)
04. На реках Вавилонских. — Знаменный распев (By the Waters of Babylon. — Znamenny Chant)
05. Ныне Силы Небесныя. — Валаамский распев (Now the Powers of Heaven. — Valaam Chant)
06. Блаженны. — Валаамский распев (The Blessed. — Valaam Chant)
07. Господи Сил. — Знаменный распев (O Lord of Hosts, Be with Us. — Znamenny Chant)
08. Седе Адам. — Валаамский распев (Adam Sitting. — Valaam Chant)
09. Объятия Отча. — Болгарский распев (I Have Recklessly Forgotten Your Glory, O Father. — Bulgarian Chant)
10. Покаяния отверзи ми двери. — Знаменный распев (Open to Me the Gates of Repentance. — Znamenny Chant)
11. Богородице Дево, радуйся. — Валаамский распев (O Virgin Theotokos, Rejoice. — Valaam Chant)
12. Вкусите и видите. — Валаамский распев (Partake and See. — Valaam Chant)
13. Чертог Твой. — Киевский распев (Thy Abode. — Kievan Chant)
14. Днесь висит на Древе. — Знаменный распев (Today He is Hung upon the Cross. — Znamenny Chant)
15. Заутра услыши глас мой. — Валаамский распев (In the Morning. — Valaam Chant)
16. Не отврати лица Твоего. — Знаменный распев (Turn Not Thy Face Away from Thy Servant. — Znamenny Chant)
17. Да молчит всякая плоть человеча. — Киевский распев (Let All Human Flesh Keep Silence. — Kievan Chant)
18. Вечери Твоея Тайныя. — Знаменный распев (Of Thy Mystical Supper. — Znamenny Chant)
19. Плач Богородицы. — Начало XIX века (Moaning of Theotokos. — Early 19th Century Chant)
Лог создания рипа
Exact Audio Copy V1.5 from 20. February 2020

Отчёт EAC об извлечении, выполненном 24. октября 2020, 10:20

Сестры Свято-Елисаветинского монастыря / Песнопения Великого поста

Дисковод: HL-DT-STDVDRAM GH22NS40 Adapter: 1 ID: 0

Режим чтения : Достоверность
Использование точного потока : Да
Отключение кэша аудио : Да
Использование указателей C2 : Нет

Коррекция смещения при чтении : 667
Способность читать области Lead-in и Lead-out : Нет
Заполнение пропущенных сэмплов тишиной : Да
Удаление блоков с тишиной в начале и конце : Нет
При вычислениях CRC использовались нулевые сэмплы : Да
Интерфейс : Встроенный Win32-интерфейс для Win NT/2000

Выходной формат : Пользовательский кодировщик
Выбранный битрейт : 1024 kBit/s
Качество : Высокий
Добавление ID3-тега : Нет
Утилита сжатия : C:\Program Files (x86)\Exact Audio Copy\Flac\flac.exe
Дополнительные параметры : -V -8 -T "Date=%year%" -T "Genre=%genre%" %source%

TOC извлечённого CD

Трек | Старт | Длительность | Начальный сектор | Конечный сектор
---------------------------------------------------------------------
1 | 0:00.00 | 5:00.32 | 0 | 22531
2 | 5:00.32 | 1:58.71 | 22532 | 31452
3 | 6:59.28 | 3:28.68 | 31453 | 47120
4 | 10:28.21 | 4:56.11 | 47121 | 69331
5 | 15:24.32 | 4:24.02 | 69332 | 89133
6 | 19:48.34 | 5:20.03 | 89134 | 113136
7 | 25:08.37 | 3:23.09 | 113137 | 128370
8 | 28:31.46 | 5:08.22 | 128371 | 151492
9 | 33:39.68 | 3:25.62 | 151493 | 166929
10 | 37:05.55 | 0:58.41 | 166930 | 171320
11 | 38:04.21 | 2:33.66 | 171321 | 182861
12 | 40:38.12 | 2:28.72 | 182862 | 194033
13 | 43:07.09 | 1:16.38 | 194034 | 199771
14 | 44:23.47 | 1:59.05 | 199772 | 208701
15 | 46:22.52 | 2:29.40 | 208702 | 219916
16 | 48:52.17 | 1:24.54 | 219917 | 226270
17 | 50:16.71 | 5:51.51 | 226271 | 252646
18 | 56:08.47 | 1:45.23 | 252647 | 260544
19 | 57:53.70 | 6:04.18 | 260545 | 287862

Характеристики диапазона извлечения и сообщения об ошибках

Выбранный диапазон

Имя файла I:\5. EAC\Песнопения Великого поста - Сестры Свято-Елисаветинского монастыря - 2005.wav

Пиковый уровень 89.8 %
Скорость извлечения 2.0 X
Качество диапазона 100.0 %
CRC теста CB47AA08
CRC копии CB47AA08
Копирование... OK

Ошибок не произошло

AccurateRip: сводка

Трек 1 точность не определена (достоверность 1) [2932B0BC], AccurateRip вернул [BDAF8634] (AR v2)
Трек 2 точность не определена (достоверность 1) [D57FA4B1], AccurateRip вернул [64FE3456] (AR v2)
Трек 3 точность не определена (достоверность 1) [9870C9CF], AccurateRip вернул [1A675C04] (AR v2)
Трек 4 точность не определена (достоверность 1) [5C103301], AccurateRip вернул [8C8FD7BE] (AR v2)
Трек 5 точность не определена (достоверность 1) [421DFAB5], AccurateRip вернул [C305C88F] (AR v2)
Трек 6 точность не определена (достоверность 1) [B0C754E1], AccurateRip вернул [CF23659C] (AR v2)
Трек 7 точность не определена (достоверность 1) [388027DD], AccurateRip вернул [765F384C] (AR v2)
Трек 8 точность не определена (достоверность 1) [065E0207], AccurateRip вернул [7A09D9C9] (AR v2)
Трек 9 точность не определена (достоверность 1) [ADD98769], AccurateRip вернул [0B411618] (AR v2)
Трек 10 точность не определена (достоверность 1) [991AD8DE], AccurateRip вернул [FE3AD6D5] (AR v2)
Трек 11 точность не определена (достоверность 1) [F9AECD33], AccurateRip вернул [72CE608D] (AR v2)
Трек 12 точность не определена (достоверность 1) [EAB8946C], AccurateRip вернул [1F448981] (AR v2)
Трек 13 точность не определена (достоверность 1) [FE402155], AccurateRip вернул [52610549] (AR v2)
Трек 14 точность не определена (достоверность 1) [153E6C6C], AccurateRip вернул [C1A7E4F5] (AR v2)
Трек 15 точность не определена (достоверность 1) [884562E6], AccurateRip вернул [24B7D5AD] (AR v2)
Трек 16 точность не определена (достоверность 1) [19A49949], AccurateRip вернул [2E7F87BE] (AR v2)
Трек 17 точность не определена (достоверность 1) [40E8841B], AccurateRip вернул [F24B5BC8] (AR v2)
Трек 18 точность не определена (достоверность 1) [B444123E], AccurateRip вернул [A7B0A344] (AR v2)
Трек 19 точность не определена (достоверность 1) [0F85560C], AccurateRip вернул [C723757E] (AR v2)

Ни один трек не прошёл проверки на точность
В вашей базе может быть иной вариант штамповки диска

Конец отчёта

==== Контрольная сумма отчёта AF1481EDB0FACD50AA55F77B708C36F53A65C02714462EF1F0E80AFCB2C05B01 ====
Лог Dynamic Range Meter
foobar2000 1.5.5 / Dynamic Range Meter 1.1.1
log date: 2020-10-25 18:58:53

--------------------------------------------------------------------------------
Statistics for: ?-Песнопения Великого поста - Сестры Свято-Елисаветинского монастыря - 2005
Number of samples: 169263444
Duration: 1:03:58
--------------------------------------------------------------------------------

Left Right

Peak Value: -0.93 dB --- -1.52 dB
Avg RMS: -15.90 dB --- -16.67 dB
DR channel: 12.05 dB --- 12.14 dB
--------------------------------------------------------------------------------

Official DR Value: DR12

Samplerate: 44100 Hz
Channels: 2
Bits per sample: 16
Bitrate: 637 kbps
Codec: FLAC
================================================================================
Содержание индексной карты (.CUE)
REM GENRE "Православные песнопения"
REM DATE 2005
REM DISCID F20EFE13
REM COMMENT "ExactAudioCopy v1.5"
PERFORMER "Сестры Свято-Елисаветинского монастыря"
TITLE " Песнопения Великого поста"
REM COMPOSER ""
FILE "Песнопения Великого поста - Сестры Свято-Елисаветинского монастыря - 2005.flac" WAVE
TRACK 01 AUDIO
TITLE "Мирная ектения. — Валаамский распев (Great Litany. — Valaam Chant)"
PERFORMER "Сестры Свято-Елисаветинского монастыря"
REM COMPOSER ""
FLAGS DCP
INDEX 01 00:00:00
TRACK 02 AUDIO
TITLE "Кондак Великого поста 'Душе моя...' (Kontakion — My Soul...)"
PERFORMER "Сестры Свято-Елисаветинского монастыря"
REM COMPOSER ""
FLAGS DCP
INDEX 01 05:00:32
TRACK 03 AUDIO
TITLE "Приидите, ублажим Иосифа... (Come, Let Us Bless Jossif...)"
PERFORMER "Сестры Свято-Елисаветинского монастыря"
REM COMPOSER ""
FLAGS DCP
INDEX 01 06:59:28
TRACK 04 AUDIO
TITLE "На реках Вавилонских. — Знаменный распев (By the Waters of Babylon. — Znamenny Chant)"
PERFORMER "Сестры Свято-Елисаветинского монастыря"
REM COMPOSER ""
FLAGS DCP
INDEX 01 10:28:21
TRACK 05 AUDIO
TITLE "Ныне Силы Небесныя. — Валаамский распев (Now the Powers of Heaven. — Valaam Chant)"
PERFORMER "Сестры Свято-Елисаветинского монастыря"
REM COMPOSER ""
FLAGS DCP
INDEX 01 15:24:32
TRACK 06 AUDIO
TITLE "Блаженны. — Валаамский распев (The Blessed. — Valaam Chant)"
PERFORMER "Сестры Свято-Елисаветинского монастыря"
REM COMPOSER ""
FLAGS DCP
INDEX 01 19:48:34
TRACK 07 AUDIO
TITLE "Господи Сил. — Знаменный распев (O Lord of Hosts, Be with Us. — Znamenny Chant)"
PERFORMER "Сестры Свято-Елисаветинского монастыря"
REM COMPOSER ""
FLAGS DCP
INDEX 01 25:08:37
TRACK 08 AUDIO
TITLE "Седе Адам. — Валаамский распев (Adam Sitting. — Valaam Chant)"
PERFORMER "Сестры Свято-Елисаветинского монастыря"
REM COMPOSER ""
FLAGS DCP
INDEX 01 28:31:46
TRACK 09 AUDIO
TITLE "Объятия Отча. — Болгарский распев (I Have Recklessly Forgotten Your Glory, O Father. — Bulgarian Chant)"
PERFORMER "Сестры Свято-Елисаветинского монастыря"
REM COMPOSER ""
FLAGS DCP
INDEX 01 33:39:68
TRACK 10 AUDIO
TITLE "Покаяния отверзи ми двери. — Знаменный распев (Open to Me the Gates of Repentance. — Znamenny Chant)"
PERFORMER "Сестры Свято-Елисаветинского монастыря"
REM COMPOSER ""
FLAGS DCP
INDEX 01 37:05:55
TRACK 11 AUDIO
TITLE "Богородице Дево, радуйся. — Валаамский распев (O Virgin Theotokos, Rejoice. — Valaam Chant)"
PERFORMER "Сестры Свято-Елисаветинского монастыря"
REM COMPOSER ""
FLAGS DCP
INDEX 01 38:04:21
TRACK 12 AUDIO
TITLE "Вкусите и видите. — Валаамский распев (Partake and See. — Valaam Chant)"
PERFORMER "Сестры Свято-Елисаветинского монастыря"
REM COMPOSER ""
FLAGS DCP
INDEX 01 40:38:12
TRACK 13 AUDIO
TITLE "Чертог Твой. — Киевский распев (Thy Abode. — Kievan Chant)"
PERFORMER "Сестры Свято-Елисаветинского монастыря"
REM COMPOSER ""
FLAGS DCP
INDEX 01 43:07:09
TRACK 14 AUDIO
TITLE "Днесь висит на Древе. — Знаменный распев (Today He is Hung upon the Cross. — Znamenny Chant)"
PERFORMER "Сестры Свято-Елисаветинского монастыря"
REM COMPOSER ""
FLAGS DCP
INDEX 01 44:23:47
TRACK 15 AUDIO
TITLE "Заутра услыши глас мой. — Валаамский распев (In the Morning. — Valaam Chant)"
PERFORMER "Сестры Свято-Елисаветинского монастыря"
REM COMPOSER ""
FLAGS DCP
INDEX 01 46:22:52
TRACK 16 AUDIO
TITLE "Не отврати лица Твоего. — Знаменный распев (Turn Not Thy Face Away from Thy Servant. — Znamenny Chant)"
PERFORMER "Сестры Свято-Елисаветинского монастыря"
REM COMPOSER ""
FLAGS DCP
INDEX 01 48:52:17
TRACK 17 AUDIO
TITLE "Да молчит всякая плоть человеча. — Киевский распев (Let All Human Flesh Keep Silence. — Kievan Chant)"
PERFORMER "Сестры Свято-Елисаветинского монастыря"
REM COMPOSER ""
FLAGS DCP
INDEX 01 50:16:71
TRACK 18 AUDIO
TITLE "Вечери Твоея Тайныя. — Знаменный распев (Of Thy Mystical Supper. — Znamenny Chant)"
PERFORMER "Сестры Свято-Елисаветинского монастыря"
REM COMPOSER ""
FLAGS DCP
INDEX 01 56:08:47
TRACK 19 AUDIO
TITLE "Плач Богородицы. — Начало XIX века (Moaning of Theotokos. — Early 19th Century Chant)"
PERFORMER "Сестры Свято-Елисаветинского монастыря"
REM COMPOSER ""
FLAGS DCP
INDEX 01 57:53:70
Скриншоты спектра частот
Spectrum pic
Frequency pic
DR Meter pic
Tracks pic
pic


Download

Войдите на сайт, чтобы увидеть полную информацию.

Как скачивать  ·   Правила трекера


_________________
«…В жизни у меня только одна задача – храм этот оберегать и богатства его приумножать. Каждый кирпичик этого храма, каждая вечная книга, каждая вечная мелодия несут в себе спрессованный опыт человечества, мысли его и мысли о нём…» (~Стругацкие)
[Профиль]  [ЛС] 
Показать сообщения:    
Ответить на тему

Текущее время: 18-Апр 15:42

Часовой пояс: GMT + 4



Вы не можете начинать темы
Вы не можете отвечать на сообщения
Вы не можете редактировать свои сообщения
Вы не можете удалять свои сообщения
Вы не можете голосовать в опросах
Вы не можете прикреплять файлы к сообщениям
Вы не можете скачивать файлы