Loading...
Error

(Православные песнопения) Слава в вышних Богу! - Праздничный хор Свято-Елисаветинского монастыря. Регент мон. Иулиания (Денисова) - 2014, FLAC (image + .cue), lossless

Ответить на тему
Статистика раздачи
   
 
Автор Сообщение

Petrorin

Стаж: 3 месяца 16 дней

Сообщений: 30

post 06-Дек-2020 16:18

[Цитировать] 

Праздничный хор Свято-Елисаветинского монастыря. Регент мон. Иулиания (Денисова) / Слава в вышних Богу!

pic
Жанр: православные песнопения
Носитель: CD
Страна: Белоруссия
Год издания: 2014
Формат: FLAC (image + .cue)
Битрейт аудио: lossless
Продолжительность: 00:46:36
Источник: собственный рип
Наличие сканов: pdf
Треклист:
01. Блажен муж (Blessed is the Man)
02. Стихира по 50 псалме на Рождество Христово (Christmas Sticheron on Psalm 50)
03. Ирмосы канона Рождества Христова (Heirmoses of the Christmas Canon)
04. Песнь Богородицы (The Song of the Theotokos)
05. Херувимская песнь (Cherubic Song)
06. Господи сил, с нами буди (O Lord of Hosts, Be with Us)
07. О Тебе радуется (In Thee Rejoiceth)
08. Три Ангела (Three Angels)
09. Добри вечiр тобi (Good Evening to You)
10. Вьюн над водой (Loach over the Water)
11. Песня про коня (The Song About a Horse)
12. Всего-то навсего (You Simply Have to Love)
13. Дни мои (My Days)
14. Французская Рождественская песня (The French Christmas Song)
Лог создания рипа
Exact Audio Copy V1.5 from 20. February 2020

Отчёт EAC об извлечении, выполненном 23. октября 2020, 23:20

Праздничный хор Свято-Елисаветинского монастыря, регент монахиня Иулиания (Денисова) / Слава в вышних Богу!

Дисковод: HL-DT-STDVDRAM GH22NS40 Adapter: 1 ID: 0

Режим чтения : Достоверность
Использование точного потока : Да
Отключение кэша аудио : Да
Использование указателей C2 : Нет

Коррекция смещения при чтении : 667
Способность читать области Lead-in и Lead-out : Нет
Заполнение пропущенных сэмплов тишиной : Да
Удаление блоков с тишиной в начале и конце : Нет
При вычислениях CRC использовались нулевые сэмплы : Да
Интерфейс : Встроенный Win32-интерфейс для Win NT/2000

Выходной формат : Пользовательский кодировщик
Выбранный битрейт : 1024 kBit/s
Качество : Высокий
Добавление ID3-тега : Нет
Утилита сжатия : C:\Program Files (x86)\Exact Audio Copy\Flac\flac.exe
Дополнительные параметры : -V -8 -T "Date=%year%" -T "Genre=%genre%" %source%

TOC извлечённого CD

Трек | Старт | Длительность | Начальный сектор | Конечный сектор
---------------------------------------------------------------------
1 | 0:00.00 | 4:25.49 | 0 | 19923
2 | 4:25.49 | 1:24.71 | 19924 | 26294
3 | 5:50.45 | 3:23.51 | 26295 | 41570
4 | 9:14.21 | 4:31.67 | 41571 | 61962
5 | 13:46.13 | 5:43.73 | 61963 | 87760
6 | 19:30.11 | 2:42.12 | 87761 | 99922
7 | 22:12.23 | 2:33.02 | 99923 | 111399
8 | 24:45.25 | 3:16.67 | 111400 | 126166
9 | 28:02.17 | 2:16.20 | 126167 | 136386
10 | 30:18.37 | 4:11.29 | 136387 | 155240
11 | 34:29.66 | 3:18.55 | 155241 | 170145
12 | 37:48.46 | 4:24.43 | 170146 | 189988
13 | 42:13.14 | 2:18.07 | 189989 | 200345
14 | 44:31.21 | 2:05.07 | 200346 | 209727

Характеристики диапазона извлечения и сообщения об ошибках

Выбранный диапазон

Имя файла I:\5. EAC\Слава в вышних Богу! - Праздничный хор Свято-Елисаветинского монастыря - 2014.wav

Пиковый уровень 97.3 %
Скорость извлечения 1.7 X
Качество диапазона 99.9 %
CRC теста CC830502
CRC копии CC830502
Копирование... OK

Ошибок не произошло

AccurateRip: сводка

Трек 1 отсутствует в базе данных
Трек 2 отсутствует в базе данных
Трек 3 отсутствует в базе данных
Трек 4 отсутствует в базе данных
Трек 5 отсутствует в базе данных
Трек 6 отсутствует в базе данных
Трек 7 отсутствует в базе данных
Трек 8 отсутствует в базе данных
Трек 9 отсутствует в базе данных
Трек 10 отсутствует в базе данных
Трек 11 отсутствует в базе данных
Трек 12 отсутствует в базе данных
Трек 13 отсутствует в базе данных
Трек 14 отсутствует в базе данных

Ни одного трека нет в базе AccurateRip

Конец отчёта

==== Контрольная сумма отчёта 0062FC982DC1E567309B22B660289175FC7C88353EB3FF2DF105898ED2C515DC ====
Лог Dynamic Range Meter
foobar2000 1.5.5 / Dynamic Range Meter 1.1.1
log date: 2020-10-25 18:38:39

--------------------------------------------------------------------------------
Statistics for: ?-Слава в вышних Богу! - Праздничный хор Свято-Елисаветинского монастыря - 2014
Number of samples: 123320064
Duration: 46:36
--------------------------------------------------------------------------------

Left Right

Peak Value: -0.23 dB --- -0.24 dB
Avg RMS: -18.70 dB --- -18.77 dB
DR channel: 13.35 dB --- 13.35 dB
--------------------------------------------------------------------------------

Official DR Value: DR13

Samplerate: 44100 Hz
Channels: 2
Bits per sample: 16
Bitrate: 675 kbps
Codec: FLAC
================================================================================
Содержание индексной карты (.CUE)
REM GENRE "Православные песнопения"
REM DATE 2014
REM DISCID BB0AEC0E
REM COMMENT "ExactAudioCopy v1.5"
PERFORMER "Праздничный хор Свято-Елисаветинского монастыря, регент монахиня Иулиания (Денисова)"
TITLE "Слава в вышних Богу!"
REM COMPOSER ""
FILE "Слава в вышних Богу! - Праздничный хор Свято-Елисаветинского монастыря - 2014.flac" WAVE
TRACK 01 AUDIO
TITLE "Блажен муж (Blessed is the Man)"
PERFORMER "Праздничный хор Свято-Елисаветинского монастыря, регент монахиня Иулиания (Денисова)"
REM COMPOSER ""
FLAGS DCP
INDEX 01 00:00:00
TRACK 02 AUDIO
TITLE "Стихира по 50 псалме на Рождество Христово (Christmas Sticheron on Psalm 50)"
PERFORMER "Праздничный хор Свято-Елисаветинского монастыря, регент монахиня Иулиания (Денисова)"
REM COMPOSER ""
FLAGS DCP
INDEX 01 04:25:49
TRACK 03 AUDIO
TITLE "Ирмосы канона Рождества Христова (Heirmoses of the Christmas Canon)"
PERFORMER "Праздничный хор Свято-Елисаветинского монастыря, регент монахиня Иулиания (Денисова)"
REM COMPOSER ""
FLAGS DCP
INDEX 01 05:50:45
TRACK 04 AUDIO
TITLE "Песнь Богородицы (The Song of the Theotokos)"
PERFORMER "Праздничный хор Свято-Елисаветинского монастыря, регент монахиня Иулиания (Денисова)"
REM COMPOSER ""
FLAGS DCP
INDEX 01 09:14:21
TRACK 05 AUDIO
TITLE "Херувимская песнь (Cherubic Song)"
PERFORMER "Праздничный хор Свято-Елисаветинского монастыря, регент монахиня Иулиания (Денисова)"
REM COMPOSER ""
FLAGS DCP
INDEX 01 13:46:13
TRACK 06 AUDIO
TITLE "Господи сил, с нами буди (O Lord of Hosts, Be with Us)"
PERFORMER "Праздничный хор Свято-Елисаветинского монастыря, регент монахиня Иулиания (Денисова)"
REM COMPOSER ""
FLAGS DCP
INDEX 01 19:30:11
TRACK 07 AUDIO
TITLE "О Тебе радуется (In Thee Rejoiceth)"
PERFORMER "Праздничный хор Свято-Елисаветинского монастыря, регент монахиня Иулиания (Денисова)"
REM COMPOSER ""
FLAGS DCP
INDEX 01 22:12:23
TRACK 08 AUDIO
TITLE "Три Ангела (Three Angels)"
PERFORMER "Праздничный хор Свято-Елисаветинского монастыря, регент монахиня Иулиания (Денисова)"
REM COMPOSER ""
FLAGS DCP
INDEX 01 24:45:25
TRACK 09 AUDIO
TITLE "Добри вечiр тобi (Good Evening to You)"
PERFORMER "Праздничный хор Свято-Елисаветинского монастыря, регент монахиня Иулиания (Денисова)"
REM COMPOSER ""
FLAGS DCP
INDEX 01 28:02:17
TRACK 10 AUDIO
TITLE "Вьюн над водой (Loach over the Water)"
PERFORMER "Праздничный хор Свято-Елисаветинского монастыря, регент монахиня Иулиания (Денисова)"
REM COMPOSER ""
FLAGS DCP
INDEX 01 30:18:37
TRACK 11 AUDIO
TITLE "Песня про коня (The Song About a Horse)"
PERFORMER "Праздничный хор Свято-Елисаветинского монастыря, регент монахиня Иулиания (Денисова)"
REM COMPOSER ""
FLAGS DCP
INDEX 01 34:29:66
TRACK 12 AUDIO
TITLE "Всего-то навсего (You Simply Have to Love)"
PERFORMER "Праздничный хор Свято-Елисаветинского монастыря, регент монахиня Иулиания (Денисова)"
REM COMPOSER ""
FLAGS DCP
INDEX 01 37:48:46
TRACK 13 AUDIO
TITLE "Дни мои (My Days)"
PERFORMER "Праздничный хор Свято-Елисаветинского монастыря, регент монахиня Иулиания (Денисова)"
REM COMPOSER ""
FLAGS DCP
INDEX 01 42:13:14
TRACK 14 AUDIO
TITLE "Французская Рождественская песня (The French Christmas Song)"
PERFORMER "Праздничный хор Свято-Елисаветинского монастыря, регент монахиня Иулиания (Денисова)"
REM COMPOSER ""
FLAGS DCP
INDEX 01 44:31:21
Скриншоты спектра частот
Spectrum pic
Frequency pic
DR Meter pic
Tracks pic
Об альбоме
Запись сделана в Концертном зале «Минск» 15 января 2014.
Мастеринг — К. Карманов.

Recorded in the "Minsk" Concert hall on January 15, 2014.
Mastering by K. Karmanov.
pic


Download

Войдите на сайт, чтобы увидеть полную информацию.

Как скачивать  ·   Правила трекера


_________________
«…В жизни у меня только одна задача – храм этот оберегать и богатства его приумножать. Каждый кирпичик этого храма, каждая вечная книга, каждая вечная мелодия несут в себе спрессованный опыт человечества, мысли его и мысли о нём…» (~Стругацкие)
[Профиль]  [ЛС] 
Показать сообщения:    
Ответить на тему

Текущее время: 05-Мар 17:40

Часовой пояс: GMT + 4



Вы не можете начинать темы
Вы не можете отвечать на сообщения
Вы не можете редактировать свои сообщения
Вы не можете удалять свои сообщения
Вы не можете голосовать в опросах
Вы не можете прикреплять файлы к сообщениям
Вы не можете скачивать файлы