Loading...
Error

(Православные песнопения) Се, время покаяния - Праздничный хор Свято-Елисаветинского монастыря. Регент мон. Иулиания (Денисова) - 2013, FLAC (image + .cue), lossless

Ответить на тему
Статистика раздачи
   
 
Автор Сообщение

Petrorin

Стаж: 4 месяца 25 дней

Сообщений: 30

post 06-Дек-2020 15:34

[Цитировать] 

Праздничный хор Свято-Елисаветинского монастыря. Регент мон. Иулиания (Денисова) / Се, время покаяния

pic
Жанр: православные песнопения
Носитель: CD
Страна: Белоруссия
Год издания: 2013
Формат: FLAC (image + .cue)
Битрейт аудио: lossless
Продолжительность: 01:01:18
Источник: собственный рип
Наличие сканов: да
Треклист:
01. Се, время покаяния (This time of repentance)
02. Ни умиления стяжах (I have not found compunction)
03. Заповеди Божия восприимем (Let us accept the God's commandments)
04. Древо неплодное (Fruitless Tree)
05. Покаяния отверзи ми двери (Open unto me the door of repentance)
06. На реках Вавилонских (On the rivers of Babylon)
07. Душе моя (Rise up, my soul)
08. Вечери Твоея тайныя (Of Thy mystical supper)
09. Господи сил, с нами буди (Lord of hosts, be with us)
10. Ныне Силы Небесныя (Now the Heavenly hosts)
11. Днесь висит на древе (Today He who suspended the Earth in the water is suspended on a cross)
12. Одеяйся светом яко ризою (He who covers Himself with light as with garment. Antiphon of the Great Friday)
13. Разбойника благоразумнаго (The good thief)
14. Кресту Твоему (Before Thy cross we bow down in worship)
15. Приидите, ублажим Иосифа (Come let us bless Joseph)
16. Молитва из Псалтири (A Prayer from the Psalter)
17. Объятия Отча (The embrace of the Father)
18. Плач Богородицы (The lamentations of the Mother of God)
Лог создания рипа
Exact Audio Copy V1.5 from 20. February 2020

Отчёт EAC об извлечении, выполненном 16. октября 2020, 20:32

Праздничный хор Свято-Елисаветинского монастыря, регент монахиня Иулиания (Денисова) / Се, время покаяния (This time of repentance)

Дисковод: HL-DT-STDVDRAM GH22NS40 Adapter: 1 ID: 0

Режим чтения : Достоверность
Использование точного потока : Да
Отключение кэша аудио : Да
Использование указателей C2 : Нет

Коррекция смещения при чтении : 667
Способность читать области Lead-in и Lead-out : Нет
Заполнение пропущенных сэмплов тишиной : Да
Удаление блоков с тишиной в начале и конце : Нет
При вычислениях CRC использовались нулевые сэмплы : Да
Интерфейс : Встроенный Win32-интерфейс для Win NT/2000

Выходной формат : Пользовательский кодировщик
Выбранный битрейт : 1024 kBit/s
Качество : Высокий
Добавление ID3-тега : Нет
Утилита сжатия : C:\Program Files (x86)\Exact Audio Copy\Flac\flac.exe
Дополнительные параметры : -V -8 -T "Date=%year%" -T "Genre=%genre%" %source%

TOC извлечённого CD

Трек | Старт | Длительность | Начальный сектор | Конечный сектор
---------------------------------------------------------------------
1 | 0:00.00 | 1:27.38 | 0 | 6562
2 | 1:27.38 | 3:08.01 | 6563 | 20663
3 | 4:35.39 | 1:46.17 | 20664 | 28630
4 | 6:21.56 | 2:33.68 | 28631 | 40173
5 | 8:55.49 | 4:49.39 | 40174 | 61887
6 | 13:45.13 | 6:58.30 | 61888 | 93267
7 | 20:43.43 | 3:04.60 | 93268 | 107127
8 | 23:48.28 | 3:34.26 | 107128 | 123203
9 | 27:22.54 | 2:45.28 | 123204 | 135606
10 | 30:08.07 | 4:01.62 | 135607 | 153743
11 | 34:09.69 | 3:24.38 | 153744 | 169081
12 | 37:34.32 | 2:25.30 | 169082 | 179986
13 | 39:59.62 | 1:24.57 | 179987 | 186343
14 | 41:24.44 | 4:28.06 | 186344 | 206449
15 | 45:52.50 | 3:28.27 | 206450 | 222076
16 | 49:21.02 | 2:31.01 | 222077 | 233402
17 | 51:52.03 | 2:14.53 | 233403 | 243505
18 | 54:06.56 | 7:11.72 | 243506 | 275902

Характеристики диапазона извлечения и сообщения об ошибках

Выбранный диапазон

Имя файла G:\ПРАВОСЛАВНОЕ ПЕНИЕ\Се, время покаяния - Праздничный хор Свято-Елисаветинского монастыря - 2013.wav

Пиковый уровень 99.8 %
Скорость извлечения 1.9 X
Качество диапазона 100.0 %
CRC теста 8E4CB691
CRC копии 8E4CB691
Копирование... OK

Ошибок не произошло

AccurateRip: сводка

Трек 1 отсутствует в базе данных
Трек 2 отсутствует в базе данных
Трек 3 отсутствует в базе данных
Трек 4 отсутствует в базе данных
Трек 5 отсутствует в базе данных
Трек 6 отсутствует в базе данных
Трек 7 отсутствует в базе данных
Трек 8 отсутствует в базе данных
Трек 9 отсутствует в базе данных
Трек 10 отсутствует в базе данных
Трек 11 отсутствует в базе данных
Трек 12 отсутствует в базе данных
Трек 13 отсутствует в базе данных
Трек 14 отсутствует в базе данных
Трек 15 отсутствует в базе данных
Трек 16 отсутствует в базе данных
Трек 17 отсутствует в базе данных
Трек 18 отсутствует в базе данных

Ни одного трека нет в базе AccurateRip

Конец отчёта

==== Контрольная сумма отчёта 2366C328C53C16AD40F868C0C44E43E3A23169353D774712F30638086425BBC6 ====
Лог Dynamic Range Meter
foobar2000 1.5.5 / Dynamic Range Meter 1.1.1
log date: 2020-10-25 17:49:11

--------------------------------------------------------------------------------
Statistics for: ?-Се, время покаяния - Праздничный хор Свято-Елисаветинского монастыря - 2013
Number of samples: 162230964
Duration: 1:01:19
--------------------------------------------------------------------------------

Left Right

Peak Value: -0.58 dB --- -0.01 dB
Avg RMS: -18.06 dB --- -18.33 dB
DR channel: 13.18 dB --- 13.95 dB
--------------------------------------------------------------------------------

Official DR Value: DR14

Samplerate: 44100 Hz
Channels: 2
Bits per sample: 16
Bitrate: 589 kbps
Codec: FLAC
================================================================================
Содержание индексной карты (.CUE)
REM GENRE "Православные песнопения"
REM DATE 2013
REM DISCID F00E5E12
REM COMMENT "ExactAudioCopy v1.5"
PERFORMER "Праздничный хор Свято-Елисаветинского монастыря, регент монахиня Иулиания (Денисова)"
TITLE "Се, время покаяния (This time of repentance)"
REM COMPOSER ""
FILE "Се, время покаяния - Праздничный хор Свято-Елисаветинского монастыря - 2013.flac" WAVE
TRACK 01 AUDIO
TITLE "Се, время покаяния (This time of repentance)"
PERFORMER "Праздничный хор Свято-Елисаветинского монастыря, регент монахиня Иулиания (Денисова)"
REM COMPOSER ""
FLAGS DCP
INDEX 01 00:00:00
TRACK 02 AUDIO
TITLE "Ни умиления стяжах (I have not found compunction)"
PERFORMER "Праздничный хор Свято-Елисаветинского монастыря, регент монахиня Иулиания (Денисова)"
REM COMPOSER ""
FLAGS DCP
INDEX 01 01:27:38
TRACK 03 AUDIO
TITLE "Заповеди Божия восприимем (Let us accept the God's commandments)"
PERFORMER "Праздничный хор Свято-Елисаветинского монастыря, регент монахиня Иулиания (Денисова)"
REM COMPOSER ""
FLAGS DCP
INDEX 01 04:35:39
TRACK 04 AUDIO
TITLE "Древо неплодное (Fruitless Tree)"
PERFORMER "Праздничный хор Свято-Елисаветинского монастыря, регент монахиня Иулиания (Денисова)"
REM COMPOSER ""
FLAGS DCP
INDEX 01 06:21:56
TRACK 05 AUDIO
TITLE "Покаяния отверзи ми двери (Open unto me the door of repentance)"
PERFORMER "Праздничный хор Свято-Елисаветинского монастыря, регент монахиня Иулиания (Денисова)"
REM COMPOSER ""
FLAGS DCP
INDEX 01 08:55:49
TRACK 06 AUDIO
TITLE "На реках Вавилонских (On the rivers of Babylon)"
PERFORMER "Праздничный хор Свято-Елисаветинского монастыря, регент монахиня Иулиания (Денисова)"
REM COMPOSER ""
FLAGS DCP
INDEX 01 13:45:13
TRACK 07 AUDIO
TITLE "Душе моя (Rise up, my soul)"
PERFORMER "Праздничный хор Свято-Елисаветинского монастыря, регент монахиня Иулиания (Денисова)"
REM COMPOSER ""
FLAGS DCP
INDEX 01 20:43:43
TRACK 08 AUDIO
TITLE "Вечери Твоея тайныя (Of Thy mystical supper)"
PERFORMER "Праздничный хор Свято-Елисаветинского монастыря, регент монахиня Иулиания (Денисова)"
REM COMPOSER ""
FLAGS DCP
INDEX 01 23:48:28
TRACK 09 AUDIO
TITLE "Господи сил, с нами буди (Lord of hosts, be with us)"
PERFORMER "Праздничный хор Свято-Елисаветинского монастыря, регент монахиня Иулиания (Денисова)"
REM COMPOSER ""
FLAGS DCP
INDEX 01 27:22:54
TRACK 10 AUDIO
TITLE "Ныне Силы Небесныя (Now the Heavenly hosts)"
PERFORMER "Праздничный хор Свято-Елисаветинского монастыря, регент монахиня Иулиания (Денисова)"
REM COMPOSER ""
FLAGS DCP
INDEX 01 30:08:07
TRACK 11 AUDIO
TITLE "Днесь висит на древе (Today He who suspended the Earth in the water is suspended on a cross)"
PERFORMER "Праздничный хор Свято-Елисаветинского монастыря, регент монахиня Иулиания (Денисова)"
REM COMPOSER ""
FLAGS DCP
INDEX 01 34:09:69
TRACK 12 AUDIO
TITLE "Одеяйся светом яко ризою (He who covers Himself with light as with garment. Antiphon of the Great Friday)"
PERFORMER "Праздничный хор Свято-Елисаветинского монастыря, регент монахиня Иулиания (Денисова)"
REM COMPOSER ""
FLAGS DCP
INDEX 01 37:34:32
TRACK 13 AUDIO
TITLE "Разбойника благоразумнаго (The good thief)"
PERFORMER "Праздничный хор Свято-Елисаветинского монастыря, регент монахиня Иулиания (Денисова)"
REM COMPOSER ""
FLAGS DCP
INDEX 01 39:59:62
TRACK 14 AUDIO
TITLE "Кресту Твоему (Before Thy cross we bow down in worship)"
PERFORMER "Праздничный хор Свято-Елисаветинского монастыря, регент монахиня Иулиания (Денисова)"
REM COMPOSER ""
FLAGS DCP
INDEX 01 41:24:44
TRACK 15 AUDIO
TITLE "Приидите, ублажим Иосифа (Come let us bless Joseph)"
PERFORMER "Праздничный хор Свято-Елисаветинского монастыря, регент монахиня Иулиания (Денисова)"
REM COMPOSER ""
FLAGS DCP
INDEX 01 45:52:50
TRACK 16 AUDIO
TITLE "Молитва из Псалтири (A Prayer from the Psalter)"
PERFORMER "Праздничный хор Свято-Елисаветинского монастыря, регент монахиня Иулиания (Денисова)"
REM COMPOSER ""
FLAGS DCP
INDEX 01 49:21:02
TRACK 17 AUDIO
TITLE "Объятия Отча (The embrace of the Father)"
PERFORMER "Праздничный хор Свято-Елисаветинского монастыря, регент монахиня Иулиания (Денисова)"
REM COMPOSER ""
FLAGS DCP
INDEX 01 51:52:03
TRACK 18 AUDIO
TITLE "Плач Богородицы (The lamentations of the Mother of God)"
PERFORMER "Праздничный хор Свято-Елисаветинского монастыря, регент монахиня Иулиания (Денисова)"
REM COMPOSER ""
FLAGS DCP
INDEX 01 54:06:56
Скриншот спектра частот
Spectrum pic
Frequency pic
DR Meter pic
Tracks pic
Об альбоме
Запись сделана в Большом зале филармонии и зале Академической Капеллы Санкт-Петербурга, 2011—2012.
Мастеринг — К. Карманов.

Recorded in the Grand Hall of St Petersburg Philharmonic and the Hall of Academic Cappella of St Petersburg, 2011—2012.
Mastering by K. Karmanov.
pic


Download

Войдите на сайт, чтобы увидеть полную информацию.

Как скачивать  ·   Правила трекера


_________________
«…В жизни у меня только одна задача – храм этот оберегать и богатства его приумножать. Каждый кирпичик этого храма, каждая вечная книга, каждая вечная мелодия несут в себе спрессованный опыт человечества, мысли его и мысли о нём…» (~Стругацкие)
[Профиль]  [ЛС] 
Показать сообщения:    
Ответить на тему

Текущее время: 14-Апр 18:22

Часовой пояс: GMT + 4



Вы не можете начинать темы
Вы не можете отвечать на сообщения
Вы не можете редактировать свои сообщения
Вы не можете удалять свои сообщения
Вы не можете голосовать в опросах
Вы не можете прикреплять файлы к сообщениям
Вы не можете скачивать файлы