Loading...
Error

Рождество Христово. Прямая трансляция Рождественского богослужения (Эфир от 06.01.2019 ) [Документальный, 2019, HDTV 1080i]

Ответить на тему
Статистика раздачи
   
 
Автор Сообщение

vladimirkiev

Стаж: 1 год 11 месяцев

Сообщений: 7

Russia

post 07-Янв-2019 18:21

[Цитировать] 

Рождество Христово. Прямая трансляция Рождественского богослужения (Эфир от 06.01.2019 )

pic
Телекомпания: Россия 1 HD, Информационное агентство Русской Православной Церкви
Жанр: Документальный

Описание:
В ночь с 6 на 7 января 2019 года, в праздник Рождества Господа Бога и Спаса нашего Иисуса Христа, Святейший Патриарх Московский и всея Руси Кирилл совершил в кафедральном соборном Храме Христа Спасителя в Москве череду рождественских богослужений ― великое повечерие, утреню и Божественную литургию святителя Василия Великого.
Рождественское Патриаршее богослужение транслировалось в прямом эфире на телеканалах «Первый» и «Россия 1». Трансляцию, организованную Информационным агентством Русской Православной Церкви, комментировал профессор Московской духовной академии Алексей Светозарский.

Продолжительность: 02:20:36
Качество видео: HDTV 1080i
Субтитры: отсутствуют

Видео: AVC/H.264, 1920x1080 (16:9), ~13.8 Mbps
Аудио: AAC, 2 ch, 446 Kbps
Семпл: https://www.sendspace.com/file/m3ul30
Mediainfo
General
Unique ID : 103306676292401998120378633816022893312 (0x4DB82462CE6E6D3F16E398B2439EC300)
Complete name : D:\Рождество Христово. Прямая трансляция Рождественского богослужения. 06.01.2019.mkv
Format : Matroska
Format version : Version 4 / Version 2
File size : 14.0 GiB
Duration : 2 h 20 min
Overall bit rate : 14.3 Mb/s
Encoded date : UTC 2019-01-07 06:54:18
Writing application : mkvmerge v28.1.0 ('Morning Child') 64-bit
Writing library : libebml v1.3.6 + libmatroska v1.4.9
Cover : Yes
Attachments : cover.png

Video
ID : 1
Format : AVC
Format/Info : Advanced Video Codec
Format profile : High@L4
Format settings : CABAC / 4 Ref Frames
Format settings, CABAC : Yes
Format settings, ReFrames : 4 frames
Format settings, GOP : M=4, N=28
Codec ID : V_MPEG4/ISO/AVC
Duration : 2 h 20 min
Bit rate : 13.8 Mb/s
Width : 1 920 pixels
Height : 1 080 pixels
Display aspect ratio : 16:9
Frame rate mode : Constant
Frame rate : 25.000 FPS
Standard : Component
Color space : YUV
Chroma subsampling : 4:2:0
Bit depth : 8 bits
Scan type : Interlaced
Scan type, store method : Separated fields
Scan order : Top Field First
Bits/(Pixel*Frame) : 0.267
Stream size : 13.6 GiB (97%)
Language : Russian
Default : Yes
Forced : No
Color range : Limited
Color primaries : BT.709
Transfer characteristics : BT.709
Matrix coefficients : BT.709

Audio
ID : 2
Format : AAC
Format/Info : Advanced Audio Codec
Format profile : LC
Codec ID : A_AAC-2
Duration : 2 h 20 min
Bit rate : 446 kb/s
Channel(s) : 2 channels
Channel positions : Front: L R
Sampling rate : 44.1 kHz
Frame rate : 43.066 FPS (1024 SPF)
Compression mode : Lossy
Stream size : 448 MiB (3%)
Language : Russian
Default : Yes
Forced : No
Скриншоты
pic pic pic pic

pic pic pic pic

pic pic pic pic

pic pic pic pic

pic pic pic pic

pic pic pic pic
Download

Войдите на сайт, чтобы увидеть полную информацию.

Как скачивать  ·   Правила трекера

[Профиль]  [ЛС] 
Показать сообщения:    
Ответить на тему

Текущее время: 16-Июн 18:49

Часовой пояс: GMT + 4



Вы не можете начинать темы
Вы не можете отвечать на сообщения
Вы не можете редактировать свои сообщения
Вы не можете удалять свои сообщения
Вы не можете голосовать в опросах
Вы не можете прикреплять файлы к сообщениям
Вы не можете скачивать файлы