Loading...
Error

(Богослужебные песнопения) Акафист преподобному Александру, игумену Свирскому, чудотворцу - 2006, FLAC (image + .cue), lossless

Ответить на тему
Статистика раздачи
   
 
Автор Сообщение

сервп62

Стаж: 8 лет 8 месяцев

Сообщений: 303

post 25-Мар-2009 03:28

[Цитировать] 

Акафист преподобному Александру, игумену Свирскому, чудотворцу
pic
Страна: Украина
Жанр: Богослужебны​е песнопения
Годы выпуска: 2006
Формат:: FLAC (image + .cue)
Битрейт аудио: lossless
Дополнительно: приложены сканы обложки-буклета и диска в разрешении 300 dpi
список песнопений
01. Бог Господь, глас 4 1:27
02. Тропарь "От юности, Богомудре" 1 0:49
03. Кондак, Икос 1 3:19
04. Кондак, Икос 2 3:09
05. Кондак, Икос 3 2:57
06. Кондак, Икос 4 3:15
07. Кондак, Икос 5 3:09
08. Кондак, Икос 6 3:22
09. Кондак, Икос 7 3:26
10. Кондак, Икос 8 3:08
11. Кондак, Икос 9 3:29
12. Кондак, Икос 10 3:10
13. Кондак, Икос 11 3:05
14. Кондак, Икос 12 2:55
15. Кондак 13 1:39
16. Кондак 13 1:12
17. Икос, Кондак 1 3:20
18. Молитва "Преподобне и Богоносне Отче" 1 1:31
19. Величание (путевой распев) 2:02
20. Величание (знаменный распев) 1 0:46
21. Стихира "Придите празднолюбцы" 1 2:45
отчёт EAC об извлечении
Exact Audio Copy V0.99 prebeta 4 from 23. January 2008

Отчёт EAC об извлечении, выполненном 24. марта 2009, 23:54

Unknown Artist / Unknown Title

Дисковод: Optiarc DVD RW AD-7530A Adapter: 0 ID: 1

Режим чтения : Достоверность
Использование точного потока : Да
Отключение кэша аудио : Да
Использование указателей C2 : Нет

Комбинированное смещение чтения/записи : 0
Способность читать области Lead-in и Lead-out : Нет
Заполнение пропущенных сэмплов тишиной : Да
Удаление блоков с тишиной в начале и конце : Нет
При вычислениях CRC использовались нулевые сэмплы : Да
Интерфейс : Установленный внешний ASPI-интерфейс

Выходной формат : Внутренние WAV-операции
Формат сэмплов : 44.100 Гц; 16 бит; стерео

TOC извлечённого CD

Трек | Старт | Длительность | Начальный сектор | Конечный сектор
---------------------------------------------------------------------
1 | 0:00.00 | 1:27.03 | 0 | 6527
2 | 1:27.03 | 0:49.06 | 6528 | 10208
3 | 2:16.09 | 3:19.00 | 10209 | 25133
4 | 5:35.09 | 3:08.56 | 25134 | 39289
5 | 8:43.65 | 2:56.74 | 39290 | 52563
6 | 11:40.64 | 3:15.27 | 52564 | 67215
7 | 14:56.16 | 3:09.28 | 67216 | 81418
8 | 18:05.44 | 3:22.30 | 81419 | 96598
9 | 21:27.74 | 3:26.08 | 96599 | 112056
10 | 24:54.07 | 3:08.14 | 112057 | 126170
11 | 28:02.21 | 3:29.18 | 126171 | 141863
12 | 31:31.39 | 3:10.25 | 141864 | 156138
13 | 34:41.64 | 3:04.73 | 156139 | 170011
14 | 37:46.62 | 2:54.40 | 170012 | 183101
15 | 40:41.27 | 1:38.74 | 183102 | 190525
16 | 42:20.26 | 1:11.57 | 190526 | 195907
17 | 43:32.08 | 3:19.43 | 195908 | 210875
18 | 46:51.51 | 1:31.14 | 210876 | 217714
19 | 48:22.65 | 2:02.04 | 217715 | 226868
20 | 50:24.69 | 0:46.54 | 226869 | 230372
21 | 51:11.48 | 2:45.45 | 230373 | 242792

Характеристики диапазона извлечения и сообщения об ошибках

Выбранный диапазон

Имя файла D:\Акафист преподобному Александру Свирскому\ансамбль Сретение - Акафист преподобному Александру Свирскому.wav

Пиковый уровень 95.4 %
Качество диапазона 99.8 %
CRC копии 4D4C3A7F
Копирование... OK

Ошибок не произошло

Конец отчёта
Download

Войдите на сайт, чтобы увидеть полную информацию.

Как скачивать  ·   Правила трекера

[Профиль]  [ЛС] 

Student_M

Стаж: 7 лет 11 месяцев

Сообщений: 40

Greece

post 22-Апр-2010 11:10 (спустя 1 год)

[Цитировать] 

Спаси Бог! Хороший акафист!
[Профиль]  [ЛС] 

Damian

Стаж: 7 лет 10 месяцев

Сообщений: 1836

Откуда: Донбасс

Russia

post 23-Фев-2011 08:03 (спустя 10 месяцев)

[Цитировать] 

Спасибо

_________________
Помолимся!
[Профиль]  [ЛС] 

Foraminifera

post 27-Мар-2011 10:58 (спустя 1 месяц 4 дня)

[Цитировать] 

Спаси, Господи!
 

AlexHAW

post 07-Июн-2011 15:02 (спустя 2 месяца 11 дней)

[Цитировать] 

Спасибо!
 

BBoris

Стаж: 7 лет 9 месяцев

Сообщений: 7

post 24-Июл-2011 04:10 (спустя 1 месяц 16 дней)

[Цитировать] 

Спасибо за акафист.
Конвертировать в mp3 с разделением треков согласно имеющемуся файлу cue не получилось. Ошибка.
Для исправления необходимо открыть файл cue в блокноте и исправить строчку с ссылкой на сам музыкальный файл - расширение wav на flac
т.е.
FILE "ансамбль Сретение - Акафист преподобному Александру Свирскому.wav" WAVE
на
FILE "ансамбль Сретение - Акафист преподобному Александру Свирскому.flac" WAVE
[Профиль]  [ЛС] 

крикотея

Стаж: 3 года 7 месяцев

Сообщений: 1

Ukraine

post 01-Мар-2014 17:38 (спустя 2 года 7 месяцев)

[Цитировать] 

Спаси Вас, Боже!
[Профиль]  [ЛС] 

stepan-frunze

Стаж: 8 лет 7 месяцев

Сообщений: 2564

Russia

post 02-Мар-2014 14:16 (спустя 20 часов)

[Цитировать] 

Спаси Бог!
[Профиль]  [ЛС] 

galia.shlikova2013

Стаж: 2 года

Сообщений: 3

Russia

post 16-Янв-2016 20:41 (спустя 1 год 10 месяцев)

[Цитировать] 

Почему-то не получается скачать, файл недоступен
[Профиль]  [ЛС] 
Показать сообщения:    
Ответить на тему

Текущее время: 19-Окт 03:40

Часовой пояс: GMT + 4



Вы не можете начинать темы
Вы не можете отвечать на сообщения
Вы не можете редактировать свои сообщения
Вы не можете удалять свои сообщения
Вы не можете голосовать в опросах
Вы не можете прикреплять файлы к сообщениям
Вы не можете скачивать файлы