Loading...
Error

Монастыри в поднебесье (Метеора катакомбы неба) (неизвестно) [1999 г., документальный, DVD5]

Ответить на тему
Статистика раздачи
Скачали: [ 6 ]
   
 
Автор Сообщение

stepan-frunze

Стаж: 7 лет 11 месяцев

Сообщений: 2565

Russia

post 28-Окт-2013 01:05

[Цитировать] 

Монастыри в поднебесье (Метеора катакомбы неба)

pic
Год выпуска: 1999
Жанр: документальный
Продолжительность: 52 минуты

Режиссер: неизвестно

Описание: О скальных греческих монастырях Метеоры, основанных афонскими монахами

Дополнительная информация: ГОД ВЫПУСКА НА ДИСКЕ НЕ УКАЗАН ПОЭТОМУ УКАЗАН ОТ ФОНАРЯ!
СКАНЫ ОБЛОЖКИ И ДИСКА В РАЗДАЧЕ!

Качество: DVD5
Формат: DVD Video
Видео кодек: MPEG2
Аудио кодек: AC3
Видео: MPEG 2, 720x576 (4:3), 25.000 fps, 9 000 Kbps (0.868 bit/pixel)
Аудио: AC-3, 48.0 KHz, 2 ch, 256 Kbps, CBR
Скриншоты
pic pic pic pic

pic pic pic pic

pic
MediaInfo
Общее
Полное имя : C:\На раздаче\Монастыри в поднебесье\VIDEO_TS\VIDEO_TS.BUP
Формат : DVD Video
Профиль формата : Menu
Размер файла : 6,00 Кбайт
Режим общего битрейта : Переменный

Видео
Идентификатор : 224 (0xE0)
Формат : MPEG Video
Версия формата : Version 1
Вид битрейта : Переменный
Ширина : 720 пикселей
Высота : 480 пикселей
Соотношение сторон : 4:3
Частота кадров : 29,970 кадров/сек
Стандарт вещания : NTSC
Метод сжатия : С потерями

Общее
Полное имя : C:\На раздаче\Монастыри в поднебесье\VIDEO_TS\VIDEO_TS.IFO
Формат : DVD Video
Профиль формата : Menu
Размер файла : 6,00 Кбайт
Режим общего битрейта : Переменный

Видео
Идентификатор : 224 (0xE0)
Формат : MPEG Video
Версия формата : Version 1
Вид битрейта : Переменный
Ширина : 720 пикселей
Высота : 480 пикселей
Соотношение сторон : 4:3
Частота кадров : 29,970 кадров/сек
Стандарт вещания : NTSC
Метод сжатия : С потерями

Общее
Полное имя : C:\На раздаче\Монастыри в поднебесье\VIDEO_TS\VTS_01_0.BUP
Формат : DVD Video
Профиль формата : Program
Размер файла : 38,0 Кбайт
Продолжительность : 53 м.
Режим общего битрейта : Переменный
Общий поток : 97 бит/сек

Видео
Идентификатор : 224 (0xE0)
Формат : MPEG Video
Версия формата : Version 2
Продолжительность : 53 м.
Вид битрейта : Переменный
Ширина : 720 пикселей
Высота : 576 пикселей
Соотношение сторон : 4:3
Частота кадров : 25,000 кадров/сек
Стандарт вещания : PAL
Метод сжатия : С потерями

Аудио
Идентификатор : 128 (0x80)
Формат : AC-3
Формат/Информация : Audio Coding 3
Продолжительность : 53 м.
Каналы : 2 канала
Частота : 48,0 КГц
Метод сжатия : С потерями
Язык : Russian

Меню
Продолжительность : 53 м.
00:00:00.000 : Chapter 1
00:00:14.400 : Chapter 2
00:05:00.000 : Chapter 3
00:10:00.000 : Chapter 4
00:15:00.000 : Chapter 5
00:20:00.000 : Chapter 6
00:25:00.000 : Chapter 7
00:30:00.000 : Chapter 8
00:35:00.000 : Chapter 9
00:40:00.000 : Chapter 10
00:45:00.000 : Chapter 11
00:50:00.000 : Chapter 12
List (Audio) : 0

Общее
Полное имя : C:\На раздаче\Монастыри в поднебесье\VIDEO_TS\VTS_01_0.IFO
Формат : DVD Video
Профиль формата : Program
Размер файла : 38,0 Кбайт
Продолжительность : 53 м.
Режим общего битрейта : Переменный
Общий поток : 97 бит/сек

Видео
Идентификатор : 224 (0xE0)
Формат : MPEG Video
Версия формата : Version 2
Продолжительность : 53 м.
Вид битрейта : Переменный
Ширина : 720 пикселей
Высота : 576 пикселей
Соотношение сторон : 4:3
Частота кадров : 25,000 кадров/сек
Стандарт вещания : PAL
Метод сжатия : С потерями

Аудио
Идентификатор : 128 (0x80)
Формат : AC-3
Формат/Информация : Audio Coding 3
Продолжительность : 53 м.
Каналы : 2 канала
Частота : 48,0 КГц
Метод сжатия : С потерями
Язык : Russian

Меню
Продолжительность : 53 м.
00:00:00.000 : Chapter 1
00:00:14.400 : Chapter 2
00:05:00.000 : Chapter 3
00:10:00.000 : Chapter 4
00:15:00.000 : Chapter 5
00:20:00.000 : Chapter 6
00:25:00.000 : Chapter 7
00:30:00.000 : Chapter 8
00:35:00.000 : Chapter 9
00:40:00.000 : Chapter 10
00:45:00.000 : Chapter 11
00:50:00.000 : Chapter 12
List (Audio) : 0

Общее
Полное имя : C:\На раздаче\Монастыри в поднебесье\VIDEO_TS\VTS_01_1.VOB
Формат : MPEG-PS
Размер файла : 1024 Мбайт
Продолжительность : 15 м.
Общий поток : 9404 Кбит/сек

Видео
Идентификатор : 224 (0xE0)
Формат : MPEG Video
Версия формата : Version 2
Профиль формата : Main@Main
Параметр BVOP формата : Да
Параметр матрицы формата : По умолчанию
Параметр GOP формата : M=3, N=15
Продолжительность : 15 м.
Битрейт : 9000 Кбит/сек
Ширина : 720 пикселей
Высота : 576 пикселей
Соотношение сторон : 4:3
Частота кадров : 25,000 кадров/сек
Стандарт вещания : PAL
Цветовое пространство : YUV
Субдискретизация насыщенности : 4:2:0
Битовая глубина : 8 бит
Тип развёртки : Чересстрочная
Порядок развёртки : Нижнее поле первое
Метод сжатия : С потерями
Бит/(Пиксели*Кадры) : 0.868
Временной код первого кадра : 00:00:00:00
Оригинал временного кода : Group of pictures header
Размер потока : 975 Мбайт (95%)

Аудио
Идентификатор : 189 (0xBD)-128 (0x80)
Формат : AC-3
Формат/Информация : Audio Coding 3
Расширение режима : CM (complete main)
Параметр Endianness формата : Big
Режим смешивания : DVD-Video
Продолжительность : 15 м.
Вид битрейта : Постоянный
Битрейт : 256 Кбит/сек
Каналы : 2 канала
Расположение каналов : Front: L R
Частота : 48,0 КГц
Битовая глубина : 16 бит
Метод сжатия : С потерями
Задержка видео : -80 мс.
Размер потока : 27,9 Мбайт (3%)

Меню

Общее
Полное имя : C:\На раздаче\Монастыри в поднебесье\VIDEO_TS\VTS_01_2.VOB
Формат : MPEG-PS
Размер файла : 1024 Мбайт
Продолжительность : 15 м.
Общий поток : 9404 Кбит/сек

Видео
Идентификатор : 224 (0xE0)
Формат : MPEG Video
Версия формата : Version 2
Профиль формата : Main@Main
Параметр BVOP формата : Да
Параметр матрицы формата : По умолчанию
Параметр GOP формата : M=3, N=15
Продолжительность : 15 м.
Битрейт : 9000 Кбит/сек
Ширина : 720 пикселей
Высота : 576 пикселей
Соотношение сторон : 4:3
Частота кадров : 25,000 кадров/сек
Стандарт вещания : PAL
Цветовое пространство : YUV
Субдискретизация насыщенности : 4:2:0
Битовая глубина : 8 бит
Тип развёртки : Чересстрочная
Порядок развёртки : Нижнее поле первое
Метод сжатия : С потерями
Бит/(Пиксели*Кадры) : 0.868
Временной код первого кадра : 00:15:13:05
Оригинал временного кода : Group of pictures header
Размер потока : 975 Мбайт (95%)

Аудио
Идентификатор : 189 (0xBD)-128 (0x80)
Формат : AC-3
Формат/Информация : Audio Coding 3
Расширение режима : CM (complete main)
Параметр Endianness формата : Big
Режим смешивания : DVD-Video
Продолжительность : 15 м.
Вид битрейта : Постоянный
Битрейт : 256 Кбит/сек
Каналы : 2 канала
Расположение каналов : Front: L R
Частота : 48,0 КГц
Битовая глубина : 16 бит
Метод сжатия : С потерями
Задержка видео : -192 мс.
Размер потока : 27,9 Мбайт (3%)

Меню

Общее
Полное имя : C:\На раздаче\Монастыри в поднебесье\VIDEO_TS\VTS_01_3.VOB
Формат : MPEG-PS
Размер файла : 1024 Мбайт
Продолжительность : 15 м.
Общий поток : 9404 Кбит/сек

Видео
Идентификатор : 224 (0xE0)
Формат : MPEG Video
Версия формата : Version 2
Профиль формата : Main@Main
Параметр BVOP формата : Да
Параметр матрицы формата : По умолчанию
Параметр GOP формата : M=3, N=15
Продолжительность : 15 м.
Битрейт : 9000 Кбит/сек
Ширина : 720 пикселей
Высота : 576 пикселей
Соотношение сторон : 4:3
Частота кадров : 25,000 кадров/сек
Стандарт вещания : PAL
Цветовое пространство : YUV
Субдискретизация насыщенности : 4:2:0
Битовая глубина : 8 бит
Тип развёртки : Чересстрочная
Порядок развёртки : Нижнее поле первое
Метод сжатия : С потерями
Бит/(Пиксели*Кадры) : 0.868
Временной код первого кадра : 00:30:26:10
Оригинал временного кода : Group of pictures header
Размер потока : 975 Мбайт (95%)

Аудио
Идентификатор : 189 (0xBD)-128 (0x80)
Формат : AC-3
Формат/Информация : Audio Coding 3
Расширение режима : CM (complete main)
Параметр Endianness формата : Big
Режим смешивания : DVD-Video
Продолжительность : 15 м.
Вид битрейта : Постоянный
Битрейт : 256 Кбит/сек
Каналы : 2 канала
Расположение каналов : Front: L R
Частота : 48,0 КГц
Битовая глубина : 16 бит
Метод сжатия : С потерями
Задержка видео : -176 мс.
Размер потока : 27,9 Мбайт (3%)

Меню

Общее
Полное имя : C:\На раздаче\Монастыри в поднебесье\VIDEO_TS\VTS_01_4.VOB
Формат : MPEG-PS
Размер файла : 508 Мбайт
Продолжительность : 7 м. 33 с.
Общий поток : 9403 Кбит/сек

Видео
Идентификатор : 224 (0xE0)
Формат : MPEG Video
Версия формата : Version 2
Профиль формата : Main@Main
Параметр BVOP формата : Да
Параметр матрицы формата : По умолчанию
Параметр GOP формата : M=3, N=15
Продолжительность : 7 м. 33 с.
Битрейт : 9000 Кбит/сек
Ширина : 720 пикселей
Высота : 576 пикселей
Соотношение сторон : 4:3
Частота кадров : 25,000 кадров/сек
Стандарт вещания : PAL
Цветовое пространство : YUV
Субдискретизация насыщенности : 4:2:0
Битовая глубина : 8 бит
Тип развёртки : Чересстрочная
Порядок развёртки : Нижнее поле первое
Метод сжатия : С потерями
Бит/(Пиксели*Кадры) : 0.868
Временной код первого кадра : 00:45:39:15
Оригинал временного кода : Group of pictures header
Размер потока : 484 Мбайт (95%)

Аудио
Идентификатор : 189 (0xBD)-128 (0x80)
Формат : AC-3
Формат/Информация : Audio Coding 3
Расширение режима : CM (complete main)
Параметр Endianness формата : Big
Режим смешивания : DVD-Video
Продолжительность : 7 м. 33 с.
Вид битрейта : Постоянный
Битрейт : 256 Кбит/сек
Каналы : 2 канала
Расположение каналов : Front: L R
Частота : 48,0 КГц
Битовая глубина : 16 бит
Метод сжатия : С потерями
Задержка видео : -192 мс.
Размер потока : 13,8 Мбайт (3%)

Меню
DVDinfo
Title: Монастыри в поднебесье
Size: 3.50 Gb ( 3 665 268,00 KBytes ) - DVD-5
Enabled regions: 1, 2, 3, 4, 5, 6, 7, 8

VTS_01 :
Play Length: 00:53:12
Video: PAL 4:3 (720x576) VBR
Audio:
Russian (Dolby AC3, 2 ch)

* Menus Information *

VIDEO_TS Menu
Video:
NTSC 4:3 (720x480) VBR
Auto Pan&Scan, Auto Letterboxed
Language Unit :


VTS_01 Menu
Video:
NTSC 4:3 (720x480) VBR
Auto Pan&Scan, Auto Letterboxed
Language Unit :
Chapter (PTT) Menu
pic
Download

Войдите для скачивания торрент-файла

Как скачивать  ·   Правила трекера



Последний раз редактировалось: stepan-frunze (2014-06-20 01:12), всего редактировалось 6 раз(а)
[Профиль]  [ЛС] 

Boris Fedorov

Стаж: 8 лет 1 месяц

Сообщений: 23

post 28-Окт-2013 19:25 (спустя 18 часов)

[Цитировать] 

VHS - рип. Такое ощущение, что исходником для VHS была 16 мм пленка
[Профиль]  [ЛС] 

Alex Sag

Стаж: 7 лет 8 месяцев

Сообщений: 270

Kazakhstan

post 20-Мар-2014 08:29 (спустя 4 месяца 22 дня)

[Цитировать] 

Спаси Господи! Благодарю!

_________________
Alexey
[Профиль]  [ЛС] 

stepan-frunze

Стаж: 7 лет 11 месяцев

Сообщений: 2565

Russia

post 21-Апр-2014 00:45 (спустя 1 месяц)

[Цитировать] 

pic
[Профиль]  [ЛС] 

vika010288

Стаж: 7 лет 7 месяцев

Сообщений: 459

Georgia

post 23-Апр-2014 23:04 (спустя 2 дня 22 часа)

[Цитировать] 

Спаси Господи!
[Профиль]  [ЛС] 

Gala277

Стаж: 11 месяцев

Сообщений: 124

Russia

post 30-Мар-2016 15:32 (спустя 1 год 11 месяцев)

[Цитировать] 

Спасибо большое! Спаси Вас Господи! ax
[Профиль]  [ЛС] 
Показать сообщения:    
Ответить на тему

Текущее время: 21-Фев 11:25

Часовой пояс: GMT + 4



Вы не можете начинать темы
Вы не можете отвечать на сообщения
Вы не можете редактировать свои сообщения
Вы не можете удалять свои сообщения
Вы не можете голосовать в опросах
Вы не можете прикреплять файлы к сообщениям
Вы не можете скачивать файлы