Loading...
Error

(Песнопения знаменного распева) Хор "Унисон" - Стихеры по 50-м псалме - 2004, FLAC (image + .cue), lossless

Ответить на тему
Статистика раздачи
   
 
Автор Сообщение

etrusk

Стаж: 10 лет

Сообщений: 128

Russia

post 26-Авг-2012 23:08

[Цитировать] 

Хор "Унисон" - Стихеры по 50-м псалме двунадесятых и избранных церковных праздников

pic
Страна: Латвия
Жанр: Песнопения знаменного распева
Год выпуска: 2004
Формат: FLAC (image + .cue)
Битрейт аудио: lossless
Продолжительность: 0:53:15
Трэклист:
1. Стихера Рождеству Пресвятой Богородицы (Днесь не плодная врата, глас 6) - 3:33
2. Стихера Воздвижению Креста Господня (Кресте Христов, глас 6) - 2:07
3. Стихера Покрову Пресвятой Богородицы (Срадуются с нами, глас 8) - 6:25
4. Стихера Введению во храм Пресвятой Богородицы (Днесь собори верних, глас 6) - 5:19
5. Стихера Святителю Христову Николе (Наследниче Божии, глас 6) - 2:43
6. Стихера Рождеству Христову (Слава в вышних Богу, глас 6) - 2:27
7. Стихера Богоявлению Господню (Бог Слово явися плотию, глас 6) - 2:32
8. Стихера Сретению Господню (Да отверзется днесь, глас 6) - 3:46
9. Стихера Благовещению Пресвятой Богородицы (Благовестит Гавриил, глас 2) - 2:14
10. Стихера Входу Господню во Иеросалим (Днесь благодать Святаго Духа, глас 6) - 1:31
11. Стихера Вознесению Господню (Днесь на небесех, глас 6) - 4:42
12. Стихера Пресвятой Троице (Царю Небесныи, глас 6) - 3:10
13. Стихера Всемилостивому Спасу (Отеческих недр, глас 4) - 3:15
14. Стихера Преображению Господню (Божества Твоего, Спасе, глас 5) - 3:41
15. Стихера Успению Пресвятой Богородицы (Егда преставление, глас 6) - 5:48

Дополнительная информация:
EAC log
Exact Audio Copy V0.99 prebeta 5 from 4. May 2009

Отчёт EAC об извлечении, выполненном 18. декабря 2011, 23:07

- / Стихеры по 50-м псалме

Дисковод: Optiarc DVD RW AD-7200S Adapter: 5 ID: 0

Режим чтения : Достоверность
Использование точного потока : Да
Отключение кэша аудио : Да
Использование указателей C2 : Нет

Коррекция смещения при чтении : 48
Способность читать области Lead-in и Lead-out : Нет
Заполнение пропущенных сэмплов тишиной : Да
Удаление блоков с тишиной в начале и конце : Нет
При вычислениях CRC использовались нулевые сэмплы : Да
Интерфейс : Встроенный Win32-интерфейс для Win NT/2000

Выходной формат : Внутренние WAV-операции
Формат сэмплов : 44.100 Гц; 16 бит; стерео

TOC извлечённого CD

Трек | Старт | Длительность | Начальный сектор | Конечный сектор
---------------------------------------------------------------------
1 | 0:00.00 | 3:32.66 | 0 | 15965
2 | 3:32.66 | 2:07.10 | 15966 | 25500
3 | 5:40.01 | 6:25.07 | 25501 | 54382
4 | 12:05.08 | 5:19.33 | 54383 | 78340
5 | 17:24.41 | 2:43.28 | 78341 | 90593
6 | 20:07.69 | 2:27.11 | 90594 | 101629
7 | 22:35.05 | 2:32.12 | 101630 | 113041
8 | 25:07.17 | 3:46.14 | 113042 | 130005
9 | 28:53.31 | 2:13.66 | 130006 | 140046
10 | 31:07.22 | 1:31.28 | 140047 | 146899
11 | 32:38.50 | 4:42.20 | 146900 | 168069
12 | 37:20.70 | 3:09.50 | 168070 | 182294
13 | 40:30.45 | 3:15.07 | 182295 | 196926
14 | 43:45.52 | 3:41.32 | 196927 | 213533
15 | 47:27.09 | 5:47.63 | 213534 | 239621

Характеристики диапазона извлечения и сообщения об ошибках

Выбранный диапазон

Имя файла M:\Audio\Spirituals_Religious\Россия\Знаменное пение (старообрядцы)\Хор Унисон Латвия - Стихеры по 50-м псалме\Стихеры по 50-м псалме.wav

Пиковый уровень 96.6 %
Качество диапазона 100.0 %
CRC теста C732517A
CRC копии C732517A
Копирование... OK

Ошибок не произошло

AccurateRip: сводка
Трек 1 нет в базе данных
Трек 2 нет в базе данных
Трек 3 нет в базе данных
Трек 4 нет в базе данных
Трек 5 нет в базе данных
Трек 6 нет в базе данных
Трек 7 нет в базе данных
Трек 8 нет в базе данных
Трек 9 нет в базе данных
Трек 10 нет в базе данных
Трек 11 нет в базе данных
Трек 12 нет в базе данных
Трек 13 нет в базе данных
Трек 14 нет в базе данных
Трек 15 нет в базе данных
Ни одного трека нет в базе AccurateRip

Конец отчёта
Исполнители: Ф.П.Бехчанов, А.Н.Жилко, Н.Л.Васильев, Ил.А.Жилко, А.В.Воронов, Ив.А.Жилко, А.Г.Соколов.

Информация с буклета.
"Пластинка появилась в результате удачного совпадения. Весной 2001 года автором этих строк при содействии Фонда Капитала Культуры был начат проект, целью которого было документировать традиционную музыку старообрядцев. Главной задачей стала запись старообрядческой литургической и обрядовой музыки, а также духовных стихов — чтобы сохранить эти культурные ценности для науки и общества. (Материалы для хранения переданы в Архив латышского фольклора при Институте литературы, фольклора и языка Латвийского университета.) Автором идеи издать пластинку является духовный наставник 1-й Даугавпилсской старообрядческой общины отец Алексий Николаевич Жилко. Возникла мысль, что ее можно бы создать на основе материала, собранного при осуществлении проекта (2001-2003 гг.). Записи проводились в Храме Рождества Пресвятой Богородицы - на хорах и в Зале заседаний Совета. Содержание пластинки определилось в диалоге автора этих строк с отцом Жилко, который привлекал к обсуждению и участников записей. Таким образом, нашли свое отражение и интересы и взгляды исследователя, и представления и пожелания духовного наставника с участниками записей (Мартин Бойко, доктор философии, доцент Института литературы, фольклора и языка Латвийского Университета).
Стихера - возвышенное пространное богословское церковное песнопение, в котором раскрыт духовный догматический смысл праздника или прославляемого святого в отношении Божьего промысла спасения человеческой души и молитва о спасении."

Данная выкладка обязана своим появлением Д.Григорьеву, любезно предоставившему компакт-диск, с которого и был осуществлен рип.
Рекомендуется всем интересующимся.
Данный альбом - логическое дополнение к альбому "Духовные стихи. Музыкальные традиции старообрядцев Храма Рождества Пресвятой Богородицы в Даугавпилсе" http://pravtor.ru/viewtopic.php?t=11063
MP3 - http://pravtor.ru/viewtopic.php?t=11224
Download

Войдите на сайт, чтобы увидеть полную информацию.

Как скачивать  ·   Правила трекера

[Профиль]  [ЛС] 
Показать сообщения:    
Ответить на тему

Текущее время: 28-Окт 00:29

Часовой пояс: GMT + 4



Вы не можете начинать темы
Вы не можете отвечать на сообщения
Вы не можете редактировать свои сообщения
Вы не можете удалять свои сообщения
Вы не можете голосовать в опросах
Вы не можете прикреплять файлы к сообщениям
Вы не можете скачивать файлы