Loading...
Error

Святая Гора Афон. 4 фильма от студии "Днесь" [2010 г., О монастырях и святынях, DVDRip]

Ответить на тему
Статистика раздачи
   
 
Автор Сообщение

corvin

Стаж: 5 лет 10 месяцев

Сообщений: 25

Откуда: Москва

Russia

post 27-Фев-2012 09:21

[Цитировать] 

Святая Гора Афон. 4 фильма от студии "Днесь"

pic
Год выпуска: 2010
Жанр: О монастырях и святынях
Продолжительность: 04:41:04

Режиссер: Россия. Студия "Днесь"

Описание:
1. Русский Свято-Пантелеймонов монастырь. Фильм 1
2. Монастыри Афона. Фильм 2
3. Чудотворные Богородичные иконы Афона. Фильм 3
4. Ново-Афонский Симоно-Кананитский монастырь. Фильм 4

Уже более 10 лет наша студия создает православные фильмы. Мы благодарны каждому, кто неравнодушно отнесся к нашему творчеству.
В Ваших руках коллекционное издание, в которое вошли фильмы о Святой Горе Афон и фильм об Абхазском Ново-Афонском Симоно-Кананитском монастыре,
но пусть Вас не удивляет подобное соседство. Потому, как это хотя и Новый, но Афон и его история и мысли, с которыми он создавался целиком и полностью связаны с Афоном Старым.
Многим уже успела полюбиться Афонская история, изложенная в наших фильмах, кто-то захочет познакомиться с ней впервые...
Так или иначе, задача данного издания заключается в объединении на одном носителе того, что создавалось годами,
чтобы наши Старые и Новые Друзья смогли заново открыть для себя Афон Старый и Новый…
С глубоким уважением, коллектив студии Днесь.

Качество: DVDRip
Формат: AVI
Видео кодек: XviD
Аудио кодек: AC3
Видео: ~1940 Кбит/сек, 704x528 (4:3), 25,000 кадров/сек, MPEG-4 Visual (XviD), (Сжатый битовый поток) (Advanced Simple@L5) (BVOP1)
Аудио: 224 Кбит/с, 48,0 КГц, 16 бит, 2 канала(ов), Audio Coding 3 (AC3)

Скриншоты:
pic pic pic pic pic pic
MediaInfo
Общее
Полное имя : C:\Svyataya.gora.Afom.(2.seriya.iz.4).2004.XviD.DVDRip.avi
Формат : AVI
Формат/Информация : Audio Video Interleave
Размер файла : 1,14 Гбайт
Продолжительность : 1 ч. 15 м.
Общий поток : 2175 Кбит/сек
Программа кодирования : VirtualDubMod 1.5.10.2 (build 2540/release)
Библиотека кодирования : VirtualDubMod build 2540/release

Видео
Идентификатор : 0
Формат : MPEG-4 Visual
Профиль формата : Advanced Simple@L5
Параметр BVOP формата : 1
Параметр QPel формата : Нет
Параметр GMC формата : Без точки перехода
Параметр матрицы формата : Default (H.263)
Идентификатор кодека : XVID
Идентификатор кодека/Подсказка : XviD
Продолжительность : 1 ч. 15 м.
Битрейт : 1941 Кбит/сек
Ширина : 704 пикселя
Высота : 528 пикселей
Соотношение сторон : 4:3
Частота кадров : 25,000 кадров/сек
Цветовое пространство : YUV
Субдискретизация насыщенности : 4:2:0
Битовая глубина : 8 бит
Тип развёртки : Прогрессивная
Метод сжатия : С потерями
Бит/(Пиксели*Кадры) : 0.209
Размер потока : 1,02 Гбайт (89%)
Библиотека кодирования : XviD 1.2.1 (UTC 2008-12-04)

Аудио
Идентификатор : 1
Формат : AC-3
Формат/Информация : Audio Coding 3
Расширение режима : CM (complete main)
Идентификатор кодека : 2000
Продолжительность : 1 ч. 15 м.
Вид битрейта : Постоянный
Битрейт : 224 Кбит/сек
Каналы : 2 канала
Расположение каналов : Front: L R
Частота : 48,0 КГц
Битовая глубина : 16 бит
Метод сжатия : С потерями
Задержка видео : 24 мс.
Размер потока : 120 Мбайт (10%)
Выравнивание : Разделение по промежуткам
Продолжительность промежутка : 40 мс. (1,00 видеокадр)
Время предзагрузки промежутка : 500 мс.
pic DVD-раздача
Download

Войдите на сайт, чтобы увидеть полную информацию.

Как скачивать  ·   Правила трекера



Последний раз редактировалось: corvin (2012-03-17 07:08), всего редактировалось 1 раз
[Профиль]  [ЛС] 

Странник1

Стаж: 7 лет 9 месяцев

Сообщений: 2308

Russia

post 27-Фев-2012 10:29 (спустя 1 час 7 минут)

[Цитировать] 

Спаси Господи!
[Профиль]  [ЛС] 

maxvell

Стаж: 6 лет 11 месяцев

Сообщений: 76

Ukraine

post 27-Фев-2012 14:39 (спустя 4 часа)

[Цитировать] 

Спасибо!
[Профиль]  [ЛС] 

елена пачковская

Стаж: 5 лет 10 месяцев

Сообщений: 72

Russia

post 27-Фев-2012 18:40 (спустя 4 часа)

[Цитировать] 

Спасибо!
[Профиль]  [ЛС] 

vika010288

Стаж: 8 лет 2 месяца

Сообщений: 458

Georgia

post 28-Фев-2012 13:34 (спустя 18 часов)

[Цитировать] 

Благодарю.
[Профиль]  [ЛС] 

hadgra

Стаж: 6 лет 6 месяцев

Сообщений: 178

post 15-Мар-2012 21:08 (спустя 16 дней)

[Цитировать] 

Спасибо за 4-й фильм (нигде, кроме как здесь, не мог найти его). Качество среднее, проигрывается на бытовом. Ошибка в комментах!!!! 4. Ново-Афонский С(И)моно-Кананитский монастырь. Фильм 4 - исправьте.
[Профиль]  [ЛС] 

сергей 125

Стаж: 8 лет 5 месяцев

Сообщений: 15

post 14-Май-2012 14:41 (спустя 1 месяц 29 дней)

[Цитировать] 

спаси Бог
[Профиль]  [ЛС] 

bbuzzy

Стаж: 8 лет 2 месяца

Сообщений: 8

Ukraine

post 19-Мар-2013 10:41 (спустя 10 месяцев)

[Цитировать] 

Спасибі!
[Профиль]  [ЛС] 

vasilg07

Стаж: 4 года 6 месяцев

Сообщений: 1

Ukraine

post 08-Апр-2013 13:16 (спустя 20 дней)

[Цитировать] 

Спасибо!
[Профиль]  [ЛС] 

mangealic

Стаж: 3 года 1 месяц

Сообщений: 23

post 16-Авг-2014 15:11 (спустя 1 год 4 месяца)

[Цитировать] 

спаси Бог
[Профиль]  [ЛС] 

АлександрК-в

Стаж: 5 лет 6 месяцев

Сообщений: 3

post 13-Июн-2015 10:15 (спустя 9 месяцев)

[Цитировать] 

Спаси Господи! Афон прекрасен!
[Профиль]  [ЛС] 

GROTESK

Стаж: 8 лет 5 месяцев

Сообщений: 78

Откуда: Краснодон

Ukraine

post 09-Авг-2015 18:06 (спустя 1 месяц 26 дней)

[Цитировать] 

Спасибо
[Профиль]  [ЛС] 
Показать сообщения:    
Ответить на тему

Текущее время: 25-Сен 17:20

Часовой пояс: GMT + 4



Вы не можете начинать темы
Вы не можете отвечать на сообщения
Вы не можете редактировать свои сообщения
Вы не можете удалять свои сообщения
Вы не можете голосовать в опросах
Вы не можете прикреплять файлы к сообщениям
Вы не можете скачивать файлы