Loading...
Error

Тебе Бога хвалим - Хор Свято-Троицкой Сергиевой Лавры (1999) 2 CD FLAC (image + .cue) + mp3 320 Kbps

Страницы:  1, 2  След.

Ответить на тему
Статистика раздачи
   
 
Автор Сообщение

Academic Crack

Администратор

Стаж: 8 лет 10 месяцев

Сообщений: 2080

Russia

post 30-Янв-2009 20:15

[Цитировать] 

Тебе Бога хвалим - Хор Свято-Троицкой Сергиевой Лавры (1999) 2 CD FLAC (image + .cue) + mp3 320 Kbps (записи 1968-1985 гг, реставрация)
pic
Год выпуска: 1999
Жанр: Церковные песнопения
Производитель диска: ФГУП "Фирма Мелодия"
Аудио кодек: FLAC/ mp3
Тип рипа: image+.cue
Битрейт аудио: lossless + mp3 320 Kbps
Исполнитель: Хор Свято-Троицкой Сергиевой Лавры и Московских Духовных академии и семинарии под управлением архимандрита Матфея (Мормыля)
Продолжительность: 73:26 + 72:51
Материал отреставрирован. Подробности на заднике обложки (смотрите скрины внизу)
Треклист
CD1
01. Красный Лаврский трезвон 00:31
02. Благослови душе моя Господа 04:58
03. Свете тихий 03:47
04. От юности восприял еси Христа 01:27
05. Хвалите имя Господне 05:40
06. Степенна 7-го гласа 02:42
07. Херувимская песнь 05:40
08. Достойно есть 02:20
09. Кто ны разлучит от любове Божия 04:37
10. Милосердия двери 04:20
11. От преславнаго чудесе 02:37
12. Господи воззвах к Тебе, услышь мя 02:41
13. В Чермнем мори 02:47
14. Преславная днесь, стихира 02:27
15. Иже добродетелей подвижник, тропарь преподобному Сергию 01:58
16. Преподобне Отче Сергие, стихира 02:45
17. На реках Вавилонских 05:48
18. Егда от древа, стихира Великой Птяницы 01:24
19. О дивное чудо, стихира Успения 01:30
20. Апостоли от конец 02:00
21. Земле русская, стихиры русским святым 03:09
22. Тебе Бога хвалим 08:05
CD2
01. Тон деспотин 01:20
02. Господи воззвах 04:04
03. Свете Тихий 03:19
04. От матерних пелен мудре 02:12
05. Все отложе, стихира преподобному Сергию 02:05
06. Степенна 3-го гласа 03:04
07. Дева днесь предстоит 02:25
08. Хвали душе моя Господа 03:57
09. Единородный Сыне 02:52
10. Во Царствии Твоем 04:11
11. От святыя иконы Твоея 02:19
12. Достойно есть 02:18
13. Се Пречистая грядет 05:54
14. Возведох очи мои в горы 04:41
15. Объятия Отча 02:32
16. Господи воззвах 02:41
17. Догматик 2-го гласа 01:47
18. Радуйся, живоносный Кресте 01:48
19. Совет превечный 02:08
20. Взбранной Воеводе 02:21
21. Днесь благодать 01:07
22. Союзом любве 01:05
23. Лентием препоясывыйся 00:53
24. Уне тебе бяше Иудо 03:48
25. Благословен еси Господи 02:29
26. Волною морскою (3 песни) 03:47
27. Воскресение Твое Христе Спасе 00:40
28. Христос воскресе 00:51
Внимание!
Кто хочет скачать только лишь mp3, то выбираем соответствующую папку в торренте при добавлении закачки. Кто хочет скачать только lossless - то же самое. контент lossless и lossy идентичны. Кто хочет скачать все - качайте все. Сканы обложек и диска в разрешении 300 dpi, скрины Tau Analyzer (главное окно + спектрограммы треков), а также log-файл EAC приложены к раздаче. Дополнительно буклетик в PDF.

Прослушать сэмпл (по ссылке дождитесь загрузки панельки flash-проигрывателя и кликните на кнопку воспроизведения)

О том, как воспроизводить lossless-форматы на компьютере, читайте здесь.
Логи EAC
CD1
Exact Audio Copy V0.99 prebeta 4 from 23. January 2008

Отчёт EAC об извлечении, выполненном 30. января 2009, 16:09

Хор Свято-Троицкой Сергиевой Лавры / Тебе Бога хвалим - Избранные песнопения Русской Православной Церкви

Дисковод: ASUS DRW-1814BL Adapter: 2 ID: 1

Режим чтения : Достоверность
Использование точного потока : Да
Отключение кэша аудио : Да
Использование указателей C2 : Нет

Коррекция смещения при чтении : 6
Способность читать области Lead-in и Lead-out : Нет
Заполнение пропущенных сэмплов тишиной : Да
Удаление блоков с тишиной в начале и конце : Нет
При вычислениях CRC использовались нулевые сэмплы : Да
Интерфейс : Установленный внешний ASPI-интерфейс

Выходной формат : Внутренние WAV-операции
Формат сэмплов : 44.100 Гц; 16 бит; стерео

TOC извлечённого CD

Трек | Старт | Длительность | Начальный сектор | Конечный сектор
---------------------------------------------------------------------
1 | 0:00.00 | 0:31.64 | 0 | 2388
2 | 0:31.64 | 4:58.61 | 2389 | 24799
3 | 5:30.50 | 3:47.22 | 24800 | 41846
4 | 9:17.72 | 1:27.65 | 41847 | 48436
5 | 10:45.62 | 5:40.55 | 48437 | 73991
6 | 16:26.42 | 2:42.55 | 73992 | 86196
7 | 19:09.22 | 5:40.18 | 86197 | 111714
8 | 24:49.40 | 2:20.22 | 111715 | 122236
9 | 27:09.62 | 4:37.65 | 122237 | 143076
10 | 31:47.52 | 4:20.57 | 143077 | 162633
11 | 36:08.34 | 2:37.61 | 162634 | 174469
12 | 38:46.20 | 2:41.62 | 174470 | 186606
13 | 41:28.07 | 2:47.45 | 186607 | 199176
14 | 44:15.52 | 2:27.38 | 199177 | 210239
15 | 46:43.15 | 1:58.22 | 210240 | 219111
16 | 48:41.37 | 2:45.68 | 219112 | 231554
17 | 51:27.30 | 5:48.15 | 231555 | 257669
18 | 57:15.45 | 1:24.25 | 257670 | 263994
19 | 58:39.70 | 1:30.37 | 263995 | 270781
20 | 60:10.32 | 2:00.65 | 270782 | 279846
21 | 62:11.22 | 3:09.45 | 279847 | 294066
22 | 65:20.67 | 8:05.53 | 294067 | 330494

Характеристики диапазона извлечения и сообщения об ошибках

Выбранный диапазон

Имя файла J:\Religion\Хор Свято-Троицкой Сергиевой Лавры - Тебе Бога хвалим - Избранные песнопения Русской Православной Церкви\lossless\CD1\CDImage.wav

Пиковый уровень 99.6 %
Качество диапазона 100.0 %
CRC теста FDC72B04
CRC копии FDC72B04
Копирование... OK

Ошибок не произошло

AccurateRip: сводка

Трек 1 нет в базе данных
Трек 2 нет в базе данных
Трек 3 нет в базе данных
Трек 4 нет в базе данных
Трек 5 нет в базе данных
Трек 6 нет в базе данных
Трек 7 нет в базе данных
Трек 8 нет в базе данных
Трек 9 нет в базе данных
Трек 10 нет в базе данных
Трек 11 нет в базе данных
Трек 12 нет в базе данных
Трек 13 нет в базе данных
Трек 14 нет в базе данных
Трек 15 нет в базе данных
Трек 16 нет в базе данных
Трек 17 нет в базе данных
Трек 18 нет в базе данных
Трек 19 нет в базе данных
Трек 20 нет в базе данных
Трек 21 нет в базе данных
Трек 22 нет в базе данных

Ни одного трека нет в базе AccurateRip

Конец отчёта
CD2
Exact Audio Copy V0.99 prebeta 4 from 23. January 2008

Отчёт EAC об извлечении, выполненном 30. января 2009, 16:45

Хор Свято-Троицкой Сергиевой Лавры / Тебе Бога хвалим - Избранные песнопения Русской Православной Церкви

Дисковод: ASUS DRW-1814BL Adapter: 2 ID: 1

Режим чтения : Достоверность
Использование точного потока : Да
Отключение кэша аудио : Да
Использование указателей C2 : Нет

Коррекция смещения при чтении : 6
Способность читать области Lead-in и Lead-out : Нет
Заполнение пропущенных сэмплов тишиной : Да
Удаление блоков с тишиной в начале и конце : Нет
При вычислениях CRC использовались нулевые сэмплы : Да
Интерфейс : Установленный внешний ASPI-интерфейс

Выходной формат : Внутренние WAV-операции
Формат сэмплов : 44.100 Гц; 16 бит; стерео

TOC извлечённого CD

Трек | Старт | Длительность | Начальный сектор | Конечный сектор
---------------------------------------------------------------------
1 | 0:00.00 | 1:20.57 | 0 | 6056
2 | 1:20.57 | 4:04.50 | 6057 | 24406
3 | 5:25.32 | 3:19.50 | 24407 | 39381
4 | 8:45.07 | 2:12.70 | 39382 | 49351
5 | 10:58.02 | 2:05.38 | 49352 | 58764
6 | 13:03.40 | 3:04.65 | 58765 | 72629
7 | 16:08.30 | 2:25.24 | 72630 | 83528
8 | 18:33.54 | 3:57.66 | 83529 | 101369
9 | 22:31.45 | 2:52.30 | 101370 | 114299
10 | 25:24.00 | 4:11.45 | 114300 | 133169
11 | 29:35.45 | 2:19.55 | 133170 | 143649
12 | 31:55.25 | 2:18.00 | 143650 | 153999
13 | 34:13.25 | 5:54.09 | 154000 | 180558
14 | 40:07.34 | 4:41.08 | 180559 | 201641
15 | 44:48.42 | 2:32.20 | 201642 | 213061
16 | 47:20.62 | 2:41.45 | 213062 | 225181
17 | 50:02.32 | 1:47.60 | 225182 | 233266
18 | 51:50.17 | 1:48.28 | 233267 | 241394
19 | 53:38.45 | 2:08.67 | 241395 | 251061
20 | 55:47.37 | 2:21.08 | 251062 | 261644
21 | 58:08.45 | 1:07.02 | 261645 | 266671
22 | 59:15.47 | 1:05.35 | 266672 | 271581
23 | 60:21.07 | 0:53.18 | 271582 | 275574
24 | 61:14.25 | 3:48.10 | 275575 | 292684
25 | 65:02.35 | 2:29.20 | 292685 | 303879
26 | 67:31.55 | 3:47.00 | 303880 | 320904
27 | 71:18.55 | 0:40.60 | 320905 | 323964
28 | 71:59.40 | 0:51.42 | 323965 | 327831

Характеристики диапазона извлечения и сообщения об ошибках

Выбранный диапазон

Имя файла J:\Religion\Хор Свято-Троицкой Сергиевой Лавры - Тебе Бога хвалим - Избранные песнопения Русской Православной Церкви\lossless\CD2\CDImage.wav

Пиковый уровень 98.6 %
Качество диапазона 100.0 %
CRC теста D3466BEC
CRC копии D3466BEC
Копирование... OK

Ошибок не произошло

AccurateRip: сводка

Трек 1 нет в базе данных
Трек 2 нет в базе данных
Трек 3 нет в базе данных
Трек 4 нет в базе данных
Трек 5 нет в базе данных
Трек 6 нет в базе данных
Трек 7 нет в базе данных
Трек 8 нет в базе данных
Трек 9 нет в базе данных
Трек 10 нет в базе данных
Трек 11 нет в базе данных
Трек 12 нет в базе данных
Трек 13 нет в базе данных
Трек 14 нет в базе данных
Трек 15 нет в базе данных
Трек 16 нет в базе данных
Трек 17 нет в базе данных
Трек 18 нет в базе данных
Трек 19 нет в базе данных
Трек 20 нет в базе данных
Трек 21 нет в базе данных
Трек 22 нет в базе данных
Трек 23 нет в базе данных
Трек 24 нет в базе данных
Трек 25 нет в базе данных
Трек 26 нет в базе данных
Трек 27 нет в базе данных
Трек 28 нет в базе данных

Ни одного трека нет в базе AccurateRip

Конец отчёта
Скрины Tau Analyzer
CD1
pic
CD2
pic
Сканы обложек и диска (буклет ищите внутри раздачи)
pic pic pic pic
Download

Войдите на сайт, чтобы увидеть полную информацию.

Как скачивать  ·   Правила трекера


_________________
pic
pic 100 Мбит/с, pic 100 Мбит/с.
Исправили раздачу? Пишите в личку со ссылкой на раздачу.


Последний раз редактировалось: Academic Crack (2011-03-08 00:23), всего редактировалось 2 раз(а)
[Профиль]  [ЛС] 

Владимир Небус

post 20-Апр-2009 16:26 (спустя 2 месяца 20 дней)

[Цитировать] 

Что-то не качается, пишет что файлов уже нет.
 

Academic Crack

Администратор

Стаж: 8 лет 10 месяцев

Сообщений: 2080

Russia

post 20-Апр-2009 16:43 (спустя 16 минут)

[Цитировать] 

Это Вы про сэмпл что ли? Ну, да, если файл не скачивают в течение 30 дней, то его удаляют. Сгрузите из раздачи любой mp3-файл, вот Вам и будет сэмпл.

_________________
pic
pic 100 Мбит/с, pic 100 Мбит/с.
Исправили раздачу? Пишите в личку со ссылкой на раздачу.
[Профиль]  [ЛС] 

серафима2003

Стаж: 7 лет 8 месяцев

Сообщений: 4

post 22-Фев-2010 21:09 (спустя 10 месяцев)

[Цитировать] 

где скорость?
[Профиль]  [ЛС] 

Academic Crack

Администратор

Стаж: 8 лет 10 месяцев

Сообщений: 2080

Russia

post 23-Фев-2010 02:55 (спустя 5 часов)

[Цитировать] 

То же самое, что и здесь

_________________
pic
pic 100 Мбит/с, pic 100 Мбит/с.
Исправили раздачу? Пишите в личку со ссылкой на раздачу.
[Профиль]  [ЛС] 

dmktrf

post 30-Мар-2010 19:48 (спустя 1 месяц 7 дней)

[Цитировать] 

Как вообще качать? Сколько можно мыкаться тут?
 

Academic Crack

Администратор

Стаж: 8 лет 10 месяцев

Сообщений: 2080

Russia

post 02-Апр-2010 02:16 (спустя 2 дня 6 часов)

[Цитировать] 

Arrow Как качать с трекера

_________________
pic
pic 100 Мбит/с, pic 100 Мбит/с.
Исправили раздачу? Пишите в личку со ссылкой на раздачу.
[Профиль]  [ЛС] 

Странник1

Стаж: 7 лет 10 месяцев

Сообщений: 2308

Russia

post 08-Сен-2010 18:34 (спустя 5 месяцев 6 дней)

[Цитировать] 

Спасибо
[Профиль]  [ЛС] 

Бранислава

Стаж: 7 лет 2 месяца

Сообщений: 10

Serbia

post 29-Сен-2010 15:52 (спустя 20 дней)

[Цитировать] 

Благодарю!
[Профиль]  [ЛС] 

Damian

Стаж: 7 лет 10 месяцев

Сообщений: 1836

Откуда: Донбасс

Russia

post 29-Сен-2010 16:37 (спустя 45 минут)

[Цитировать] 

Академику поклон нижайший!!!

_________________
Помолимся!
[Профиль]  [ЛС] 

Кириченко Денис

Стаж: 5 лет 11 месяцев

Сообщений: 93

Kazakhstan

post 11-Дек-2011 13:52 (спустя 1 год 2 месяца)

[Цитировать] 

Не добавляется в торент?
[Профиль]  [ЛС] 

Андрей62

post 19-Янв-2012 20:30 (спустя 1 месяц 8 дней)

[Цитировать] 

Спаси Господи! Эти записи у меня были на кассете. Да и то одну украли. Академику поем хвалитны!
 

Овечкина

post 30-Май-2012 23:08 (спустя 4 месяца 11 дней)

[Цитировать] 

Спаси Бог!
 

александрр1977

Стаж: 5 лет 10 месяцев

Сообщений: 85

Russia

post 12-Дек-2014 23:51 (спустя 2 года 6 месяцев)

[Цитировать] 

Благодарю Вас!
[Профиль]  [ЛС] 

rsn

Стаж: 5 лет 7 месяцев

Сообщений: 30

Ussr

post 18-Мар-2015 11:49 (спустя 3 месяца 5 дней)

[Цитировать] 

Спаси Вас Господи!
[Профиль]  [ЛС] 
Показать сообщения:    
Ответить на тему

Текущее время: 23-Окт 02:50

Часовой пояс: GMT + 4



Вы не можете начинать темы
Вы не можете отвечать на сообщения
Вы не можете редактировать свои сообщения
Вы не можете удалять свои сообщения
Вы не можете голосовать в опросах
Вы не можете прикреплять файлы к сообщениям
Вы не можете скачивать файлы