Loading...
Error

Афон: достучаться до небес (Наталья Родионова) [2012 г., Документальный, SATRip]

Страницы:  1, 2  След.

Ответить на тему
Статистика раздачи
   
 
Автор Сообщение

corvin

Стаж: 8 лет 8 месяцев

Сообщений: 25

Откуда: Москва

Russia

post 11-Янв-2012 14:26

[Цитировать] 

Афон: достучаться до небес

pic
Год выпуска: 2012
Жанр: Документальный
Продолжительность: 00:51:15

Режиссер: Наталья Родионова

Описание: Уникальные съемки в единственной в мире монашеской республике. Афон — цитадель мирового православия на полуострове Халкидики в Греции. Съемочная группа Первого канала впервые заглянула за тайные двери древних обителей… Чудеса, исцеления, знаки. Сама съемка, как чудо, ведь по местным законам видеокамеру легко могут отнять, да и отснятые кадры «вдруг» пропадают…, Возвращение Пояса Богородицы из России на Афон… Ксилургу — древнейшая на планете Земля русская обитель. Экслюзивные кадры и интервью на Карулях — в самом закрытом уделе афонского монашества, где в тайных пещерах скрываются от мира настоящие аскеты, а иногда и беглые люди…, Дыхание Рождества на Святой Горе, без еловых ветвей, но с южными плодами… Легенда о двенадцати старцах, почему на Афон не пускают женщин, в чем рецепт афонского долголетия, как монахи хоронят своих братьев…, Путь героев этого фильма неслучайно называют подвигом. Иноки, то есть иные, другие люди. Греки и русские, сербы и англичане, даже бразильцы. Они живут вне мира, но их молитвой держится мир. Афанасий из России, Сергей с Украины, Феодох из Грузии. Три судьбы, три дороги к Богу сошлись на Святой горе…, «Афон — достучаться до небес». Фильм, в котором Святая Гора впервые так открывается миру…

Качество: SATRip
Формат: AVI
Видео кодек: XviD
Аудио кодек: MP3
Видео: 1708 Кбит/сек, 720*384, в 25,000 кадр/сек, XVID
Аудио: 192 Кбит/сек, 48,0 КГц, 2 канала, MP3

Скриншоты:
pic pic pic pic pic pic
MediaInfo
Общее
Полное имя : ...\Afon.Dostuchatsja.do.nebes.2012.XviD.SATRip.avi
Формат : AVI
Формат/Информация : Audio Video Interleave
Размер файла : 700 Мбайт
Продолжительность : 51 м.
Общий поток : 1910 Кбит/сек
Программа кодирования : VirtualDubMod 1.5.10.2 (build 2540/release)
Библиотека кодирования : VirtualDubMod build 2540/release

Видео
Идентификатор : 0
Формат : MPEG-4 Visual
Профиль формата : Advanced Simple@L5
Параметр BVOP формата : 1
Параметр QPel формата : Нет
Параметр GMC формата : Без точки перехода
Параметр матрицы формата : Default (H.263)
Режим смешивания : Сжатый битовый поток
Идентификатор кодека : XVID
Идентификатор кодека/Подсказка : XviD
Продолжительность : 51 м.
Битрейт : 1708 Кбит/сек
Ширина : 720 пикселей
Высота : 384 пикселя
Соотношение сторон : 1,875
Частота кадров : 25,000 кадров/сек
Цветовое пространство : YUV
Субдискретизация насыщенности : 4:2:0
Битовая глубина : 8 бит
Тип развёртки : Прогрессивная
Метод сжатия : С потерями
Бит/(Пиксели*Кадры) : 0.247
Размер потока : 626 Мбайт (89%)
Библиотека кодирования : XviD 1.2.1 (UTC 2008-12-04)

Аудио
Идентификатор : 1
Формат : MPEG Audio
Версия формата : Version 1
Профиль формата : Layer 2
Идентификатор кодека : 50
Продолжительность : 51 м.
Вид битрейта : Постоянный
Битрейт : 192 Кбит/сек
Каналы : 2 канала
Частота : 48,0 КГц
Метод сжатия : С потерями
Размер потока : 70,3 Мбайт (10%)
Выравнивание : Соединение по промежуткам
Продолжительность промежутка : 40 мс. (1,00 видеокадр)
Время предзагрузки промежутка : 504 мс.
Download

Войдите на сайт, чтобы увидеть полную информацию.

Как скачивать  ·   Правила трекера



Последний раз редактировалось: corvin (2012-02-26 17:22), всего редактировалось 5 раз(а)
[Профиль]  [ЛС] 

Странник1

Стаж: 10 лет

Сообщений: 2307

Russia

post 11-Янв-2012 14:55 (спустя 28 минут)

[Цитировать] 

Спасибо
[Профиль]  [ЛС] 

Olegmds

post 11-Янв-2012 18:46 (спустя 3 часа)

[Цитировать] 

Будем смотреть, спасибо большое.
 

AndrewZ

Стаж: 8 лет 10 месяцев

Сообщений: 3

Russia

post 13-Янв-2012 00:12 (спустя 1 день 5 часов)

[Цитировать] 

Очень хороший фильм!Спаси Господи!
[Профиль]  [ЛС] 

afara

Стаж: 9 лет 9 месяцев

Сообщений: 201

Moldova

post 14-Янв-2012 02:02 (спустя 1 день 1 час)

[Цитировать] 

Во Славу Пресвятой Троицы.

_________________
Господи, Ты - моё сокровище, Ты - моё счастье...
Ты - мой покой, Ты - моя жизнь вечная !
Передаю себя в волю твою.
Сам со мной живи, и Сам говори !

Отдай себя, и Он будет жить с тобою...и говорить будет с тобою...
[Профиль]  [ЛС] 

andrejpushkaryov

Модератор

Стаж: 11 лет

Сообщений: 1055

Откуда: Ижевск

Russia

post 14-Янв-2012 09:51 (спустя 7 часов)

[Цитировать] 

Скриншоты не соответствуют заявленным данным.
Arrow Как получить информацию о видео и аудио-файлах
Arrow Требования к видео-раздачам на трекере
[Профиль]  [ЛС] 

corvin

Стаж: 8 лет 8 месяцев

Сообщений: 25

Откуда: Москва

Russia

post 14-Янв-2012 10:35 (спустя 43 минуты)

[Цитировать] 

andrejpushkaryov писал(а):

Скриншоты исправил .
[Профиль]  [ЛС] 

Александр Донцов

Стаж: 10 лет

Сообщений: 454

post 02-Фев-2012 19:27 (спустя 19 дней)

[Цитировать] 

Отличный, духовный и трезвый фильм.

Благодарю от всей души, здравия и многая лета авторам и распространителям !
[Профиль]  [ЛС] 

vika010288

Стаж: 11 лет

Сообщений: 456

Georgia

post 04-Фев-2012 22:03 (спустя 2 дня 2 часа)

[Цитировать] 

Спаси Господи!А с отцом Феодохом я был знаком еще тогда, когда он жил в миру.
[Профиль]  [ЛС] 

Altarnik(94)

Стаж: 9 лет 1 месяц

Сообщений: 1

Откуда: Украина

Ukraine

post 07-Фев-2012 12:34 (спустя 2 дня 14 часов)

[Цитировать] 

Спасибо за фильм!Просто замечательный. Smile
[Профиль]  [ЛС] 

Игорь Пибаев

Стаж: 10 лет

Сообщений: 203

Russia

post 21-Фев-2012 20:13 (спустя 14 дней)

[Цитировать] 

Может кому пригодиться
Обложка
pic
[Профиль]  [ЛС] 

Damian

Стаж: 10 лет

Сообщений: 1830

Откуда: Донбасс

Russia

post 21-Фев-2012 20:59 (спустя 45 минут)

[Цитировать] 

А я вот такой сборничек сделал
pic

_________________
Помолимся!
[Профиль]  [ЛС] 

wittt

Стаж: 11 лет

Сообщений: 2

Откуда: A-A

Kazakhstan

post 30-Апр-2012 16:49 (спустя 2 месяца 8 дней)

[Цитировать] 

Интересно, в чем заключалась режиссерская работа Натальи Родионовой? Ведь ей, как женщине, даже и побывать на месте съемок невозможно.
В целом впечатление от фильма хорошее, но местами забавно. Например, говорят о том, что на Карулях живут самые строгие, самые аскетичные подвижники и тут же показывают о. Афанасия сидящего в интернете за своим макбуком в своей недешевой карульской кельи.
[Профиль]  [ЛС] 

g-cat

Стаж: 8 лет 7 месяцев

Сообщений: 20

post 27-Май-2012 22:21 (спустя 27 дней)

[Цитировать] 

фильм очень хороший, прямо дух захватывает! Спаси вас Господи за такую дивную раздачу!
[Профиль]  [ЛС] 

Дунаев Павел

Стаж: 8 лет 5 месяцев

Сообщений: 10

post 30-Авг-2012 02:32 (спустя 3 месяца 2 дня)

[Цитировать] 

Большое спасибо за интересный фильм!
[Профиль]  [ЛС] 
Показать сообщения:    
Ответить на тему

Текущее время: 04-Июл 15:50

Часовой пояс: GMT + 4



Вы не можете начинать темы
Вы не можете отвечать на сообщения
Вы не можете редактировать свои сообщения
Вы не можете удалять свои сообщения
Вы не можете голосовать в опросах
Вы не можете прикреплять файлы к сообщениям
Вы не можете скачивать файлы