Loading...
Error

Вяземский Котел (Сергей Дубинкин) [2011 г., Документальный, DVDRip]

Ответить на тему
Статистика раздачи
   
 
Автор Сообщение

corvin

Стаж: 8 лет 8 месяцев

Сообщений: 25

Откуда: Москва

Russia

post 30-Ноя-2011 19:59

[Цитировать] 

Вяземский Котел

pic
Год выпуска: 2011
Жанр: Документальный
Продолжительность: 00:39:10

Режиссер: Сергей Дубинкин

Описание: Октябрь 1941 года. Хаос войны. В полном окружении под Вязьмой наши армии сражаются и гибнут за Москву. На этих страницах войны 50 лет стоял гриф "секретно". Чем же на самом деле была Вяземская битва: военным поражением или стратегической победой? Кем были погибшие и взятые в немецкий плен генералы и солдаты: предателями или героями? И почему Святейший Патриарх Кирилл назвал это сражение "Русской Голгофой"?

Качество: DVDRip
Формат: AVI
Видео кодек: XviD
Аудио кодек: MP3
Видео: XviD, 1492 Кбит/сек, 720x544 (4:3), 25,00 кадров/сек
Аудио: MP3, 48,0 КГц, 2 канала, 128 Кбит/сек

Скриншоты:
pic pic pic pic pic pic
MediaInfo
Полное имя : ...\Вяземский котел 2011\Vyazemskyi.kotel\Vyazemskyi.kotel.2011.XviD.DVDRip.avi
Формат : AVI
Формат/Информация : Audio Video Interleave
Размер файла : 458 Мбайт
Продолжительность : 39 м.
Общий поток : 1633 Кбит/сек

Видео
Идентификатор : 0
Формат : MPEG-4 Visual
Профиль формата : Advanced Simple@L5
Параметр BVOP формата : 2
Параметр QPel формата : Нет
Параметр GMC формата : Без точки перехода
Параметр матрицы формата : Default (H.263)
Идентификатор кодека : XVID
Идентификатор кодека/Подсказка : XviD
Продолжительность : 39 м.
Битрейт : 1492 Кбит/сек
Ширина : 720 пикселей
Высота : 544 пикселя
Соотношение сторон : 4:3
Частота кадров : 25,000 кадров/сек
Цветовое пространство : YUV
Субдискретизация насыщенности : 4:2:0
Битовая глубина : 8 бит
Тип развёртки : Прогрессивная
Метод сжатия : С потерями
Бит/(Пиксели*Кадры) : 0.152
Размер потока : 418 Мбайт (91%)
Библиотека кодирования : XviD 63

Аудио
Идентификатор : 1
Формат : MPEG Audio
Версия формата : Version 1
Профиль формата : Layer 3
Идентификатор кодека : 55
Идентификатор кодека/Подсказка : MP3
Продолжительность : 39 м.
Вид битрейта : Постоянный
Битрейт : 128 Кбит/сек
Каналы : 2 канала
Частота : 48,0 КГц
Метод сжатия : С потерями
Размер потока : 35,9 Мбайт (8%)
Выравнивание : Разделение по промежуткам
Продолжительность промежутка : 24 мс. (0,60 видеокадр)
Download

Войдите на сайт, чтобы увидеть полную информацию.

Как скачивать  ·   Правила трекера



Последний раз редактировалось: corvin (2012-01-30 02:42), всего редактировалось 2 раз(а)
[Профиль]  [ЛС] 

SAZ

Стаж: 9 лет 7 месяцев

Сообщений: 317

Russia

post 30-Ноя-2011 20:40 (спустя 41 минута)

[Цитировать] 

Спаси Господи!
[Профиль]  [ЛС] 

Странник1

Стаж: 10 лет

Сообщений: 2307

Russia

post 05-Дек-2011 17:32 (спустя 4 дня)

[Цитировать] 

Благодарю
[Профиль]  [ЛС] 

hadgra

Стаж: 9 лет 3 месяца

Сообщений: 179

post 05-Июл-2012 22:33 (спустя 7 месяцев)

[Цитировать] 

Спасибо за фильм. Качество отличное, проигрывается на бытовом.
[Профиль]  [ЛС] 
Показать сообщения:    
Ответить на тему

Текущее время: 04-Июл 16:28

Часовой пояс: GMT + 4



Вы не можете начинать темы
Вы не можете отвечать на сообщения
Вы не можете редактировать свои сообщения
Вы не можете удалять свои сообщения
Вы не можете голосовать в опросах
Вы не можете прикреплять файлы к сообщениям
Вы не можете скачивать файлы