Loading...
Error

(Церковная музыка и церковные хоры (lossless).) "Крестителю Руси Великому равноапостольному князю Владимиру Святославичу". - 2010, APE (image + .cue), lossless

Ответить на тему
Статистика раздачи
   
 
Автор Сообщение

СЕРГУЛЕТ

Стаж: 8 лет 7 месяцев

Сообщений: 2640

Откуда: LA ROMANA

Dominicanrep

post 17-Ноя-2011 20:18

[Цитировать] 

"Крестителю Руси Великому равноапостольному князю Владимиру Святославичу".

pic
Страна: Украина.
Жанр: Церковная музыка и церковные хоры (lossless).
Год выпуска: 2010
Формат: APE (image + .cue)
Битрейт аудио: lossless
Продолжительность: 00:51:05
Содержание+Обложки
picpic
EAC log
Exact Audio Copy V1.0 beta 2 from 29. April 2011

Отчёт EAC об извлечении, выполненном 17. ноября 2011, 10:08

Unknown Artist / Крестителю Руси Владимиру

Дисковод: ASUS DRW-2014L1T Adapter: 2 ID: 1

Режим чтения : Достоверность
Использование точного потока : Да
Отключение кэша аудио : Да
Использование указателей C2 : Нет

Коррекция смещения при чтении : 6
Способность читать области Lead-in и Lead-out : Нет
Заполнение пропущенных сэмплов тишиной : Да
Удаление блоков с тишиной в начале и конце : Нет
При вычислениях CRC использовались нулевые сэмплы : Да
Интерфейс : Встроенный Win32-интерфейс для Win NT/2000

Выходной формат : Внутренние WAV-операции
Формат сэмплов : 44.100 Гц; 16 бит; стерео

TOC извлечённого CD

Трек | Старт | Длительность | Начальный сектор | Конечный сектор
---------------------------------------------------------------------
1 | 0:00.00 | 6:49.03 | 0 | 30677
2 | 6:49.03 | 5:25.26 | 30678 | 55078
3 | 12:14.29 | 3:43.20 | 55079 | 71823
4 | 15:57.49 | 1:04.49 | 71824 | 76672
5 | 17:02.23 | 1:07.60 | 76673 | 81757
6 | 18:10.08 | 1:04.37 | 81758 | 86594
7 | 19:14.45 | 1:22.17 | 86595 | 92761
8 | 20:36.62 | 5:43.13 | 92762 | 118499
9 | 26:20.00 | 3:09.57 | 118500 | 132731
10 | 29:29.57 | 1:42.71 | 132732 | 140452
11 | 31:12.53 | 1:17.41 | 140453 | 146268
12 | 32:30.19 | 1:39.56 | 146269 | 153749
13 | 34:10.00 | 2:04.73 | 153750 | 163122
14 | 36:14.73 | 2:12.56 | 163123 | 173078
15 | 38:27.54 | 1:22.24 | 173079 | 179252
16 | 39:50.03 | 2:23.31 | 179253 | 190008
17 | 42:13.34 | 0:45.08 | 190009 | 193391
18 | 42:58.42 | 1:22.27 | 193392 | 199568
19 | 44:20.69 | 4:38.66 | 199569 | 220484
20 | 48:59.60 | 3:51.20 | 220485 | 237829
21 | 52:51.05 | 3:09.71 | 237830 | 252075
22 | 56:01.01 | 2:28.40 | 252076 | 263215

Характеристики диапазона извлечения и сообщения об ошибках

Выбранный диапазон

Имя файла C:\Unknown Artist - Крестителю Руси Владимиру.wav

Пиковый уровень 93.4 %
Скорость извлечения 7.6 X
Качество диапазона 99.9 %
CRC копии 256421E5
Копирование... OK

Ошибок не произошло

Конец отчёта

==== Контрольная сумма отчёта 47B6BC0A9E13A40363E2922B7423F7C71C68FCA90F89E5911B5A7028D7E7B989 ====
Дополнительная информация: Исполняет ансамбль "Сретение".
Запись в Трапезном храме преподобных Антония и Феодосия Печерских в Киево-Печерской Лавре 10-11 июня 2010 года.
Download

Войдите на сайт, чтобы увидеть полную информацию.

Как скачивать  ·   Правила трекера

[Профиль]  [ЛС] 

Alex335

Стаж: 4 года 8 месяцев

Сообщений: 5

Ukraine

post 21-Янв-2013 01:47 (спустя 1 год 2 месяца)

[Цитировать] 

Спасибо за прекрасный диск!
Качество хорошее!
[Профиль]  [ЛС] 

любовь333

Стаж: 7 лет 5 месяцев

Сообщений: 44

Russia

post 29-Окт-2015 16:49 (спустя 2 года 9 месяцев)

[Цитировать] 

Дай, Глсподь, Вам здоровья
[Профиль]  [ЛС] 
Показать сообщения:    
Ответить на тему

Текущее время: 23-Сен 20:18

Часовой пояс: GMT + 4



Вы не можете начинать темы
Вы не можете отвечать на сообщения
Вы не можете редактировать свои сообщения
Вы не можете удалять свои сообщения
Вы не можете голосовать в опросах
Вы не можете прикреплять файлы к сообщениям
Вы не можете скачивать файлы