Loading...
Error

(Церковная музыка и церковные хоры (lossless).) "Русская Пасха". (Песнопения Русской Православной Церкви). - 2006, APE (image + .cue), lossless

Ответить на тему
Статистика раздачи
   
 
Автор Сообщение

СЕРГУЛЕТ

Стаж: 8 лет 7 месяцев

Сообщений: 2640

Откуда: LA ROMANA

Dominicanrep

post 06-Ноя-2011 14:42

[Цитировать] 

"Русская Пасха". (Песнопения Русской Православной Церкви).

pic
Страна: Россия. IMLab.
Жанр: Церковная музыка и церковные хоры (lossless).
Год выпуска: 2006
Формат: APE (image + .cue)
Битрейт аудио: lossless
Продолжительность: 01:18:05
Содержание+Обложки
picpicpic
EAC log
Exact Audio Copy V1.0 beta 2 from 29. April 2011

Отчёт EAC об извлечении, выполненном 6. ноября 2011, 10:29

Владислав Чернушенко / Русская Пасха

Дисковод: ASUS DRW-2014L1T Adapter: 2 ID: 1

Режим чтения : Достоверность
Использование точного потока : Да
Отключение кэша аудио : Да
Использование указателей C2 : Нет

Коррекция смещения при чтении : 6
Способность читать области Lead-in и Lead-out : Нет
Заполнение пропущенных сэмплов тишиной : Да
Удаление блоков с тишиной в начале и конце : Нет
При вычислениях CRC использовались нулевые сэмплы : Да
Интерфейс : Встроенный Win32-интерфейс для Win NT/2000

Выходной формат : Внутренние WAV-операции
Формат сэмплов : 44.100 Гц; 16 бит; стерео

TOC извлечённого CD

Трек | Старт | Длительность | Начальный сектор | Конечный сектор
---------------------------------------------------------------------
1 | 0:00.00 | 5:09.73 | 0 | 23247
2 | 5:09.73 | 6:35.26 | 23248 | 52898
3 | 11:45.24 | 5:20.20 | 52899 | 76918
4 | 17:05.44 | 3:14.40 | 76919 | 91508
5 | 20:20.09 | 2:17.70 | 91509 | 101853
6 | 22:38.04 | 0:44.15 | 101854 | 105168
7 | 23:22.19 | 1:41.30 | 105169 | 112773
8 | 25:03.49 | 3:25.05 | 112774 | 128153
9 | 28:28.54 | 0:29.45 | 128154 | 130373
10 | 28:58.24 | 3:32.65 | 130374 | 146338
11 | 32:31.14 | 4:45.04 | 146339 | 167717
12 | 37:16.18 | 1:57.36 | 167718 | 176528
13 | 39:13.54 | 1:52.30 | 176529 | 184958
14 | 41:06.09 | 6:06.17 | 184959 | 212425
15 | 47:12.26 | 0:26.51 | 212426 | 214426
16 | 47:39.02 | 5:26.06 | 214427 | 238882
17 | 53:05.08 | 1:08.09 | 238883 | 243991
18 | 54:13.17 | 4:17.20 | 243992 | 263286
19 | 58:30.37 | 3:32.26 | 263287 | 279212
20 | 62:02.63 | 0:26.31 | 279213 | 281193
21 | 62:29.19 | 3:09.25 | 281194 | 295393
22 | 65:38.44 | 2:17.07 | 295394 | 305675
23 | 67:55.51 | 0:48.52 | 305676 | 309327
24 | 68:44.28 | 9:20.58 | 309328 | 351385

Характеристики диапазона извлечения и сообщения об ошибках

Выбранный диапазон

Имя файла C:\Владислав Чернушенко - Русская Пасха.wav

Пиковый уровень 98.9 %
Скорость извлечения 9.7 X
Качество диапазона 100.0 %
CRC копии 8E0944A3
Копирование... OK

Ошибок не произошло

Конец отчёта

==== Контрольная сумма отчёта 7D8B1132C0B87D902DD7DECE22A7A081959D80F35B8FFB823817B6BAAC7ADBE2 ====
Дополнительная информация: Певчая капелла Санкт-Петербурга. Художественный руководитель и дирижер Владислав Чернушенко.
Download

Войдите на сайт, чтобы увидеть полную информацию.

Как скачивать  ·   Правила трекера

[Профиль]  [ЛС] 

Владимир Лухов

Стаж: 7 лет

Сообщений: 109

Откуда: Саратов

Russia

post 12-Апр-2012 22:45 (спустя 5 месяцев 6 дней)

[Цитировать] 

Спаси Господи!
С близким Праздником!

_________________
С уважением. Владимир.
[Профиль]  [ЛС] 

Olechka-170761

Стаж: 6 лет 5 месяцев

Сообщений: 146

Russia

post 13-Апр-2012 10:05 (спустя 11 часов)

[Цитировать] 

Спасибо!С наступающим светлым праздником!
[Профиль]  [ЛС] 

shymsknik

Стаж: 6 лет 8 месяцев

Сообщений: 179

Russia

post 18-Апр-2012 14:35 (спустя 5 дней)

[Цитировать] 

Спаси Господи! С праздником Светлой Пасхи.
[Профиль]  [ЛС] 

sudilovski

Стаж: 3 года 5 месяцев

Сообщений: 3

post 04-Июн-2015 12:52 (спустя 3 года 1 месяц)

[Цитировать] 

Если есть возможность, станьте на раздачу.
Заранее спасибо.
[Профиль]  [ЛС] 
Показать сообщения:    
Ответить на тему

Текущее время: 23-Сен 11:25

Часовой пояс: GMT + 4



Вы не можете начинать темы
Вы не можете отвечать на сообщения
Вы не можете редактировать свои сообщения
Вы не можете удалять свои сообщения
Вы не можете голосовать в опросах
Вы не можете прикреплять файлы к сообщениям
Вы не можете скачивать файлы