Loading...
Error

(Церковная музыка и церковные хоры (lossless).) "Днесь Земля Русская предстоит Богу". Божественная литургия 12 июня 1988 г. Молебен. Концерт. (2CD).- 2008, MP3, lossless

Ответить на тему
Статистика раздачи
Скачали: [ 3 ]
   
 
Автор Сообщение

СЕРГУЛЕТ

Стаж: 7 лет 9 месяцев

Сообщений: 2639

Откуда: LA ROMANA

Dominicanrep

post 21-Ноя-2009 17:20

[Цитировать] 

"Днесь Земля Русская предстоит Богу".Божественная литургия 12 июня 1988 г. Молебен. Концерт. (2CD).

pic
Страна: Россия. Издательский совет РПЦ.
Жанр: Церковная музыка и церковные хоры (lossless).
Год выпуска: 2008
Формат: MP3+Lossless
Битрейт аудио: 320kbps+APE (image + .cue)
Продолжительность: 04:27:32.
Трэклист:
CD1. БОЖЕСТВЕННАЯ ЛИТУРГИЯ (MP3)
1. Начало. Мирная ектения.
2. Антифон I, II.
3. Малый вход...Тропари.
4. Елицы во Христа креститеся...
5. Прокимен. Чтение Апостола. Чтение Евангелия.
6. Ектении.
7. Херувимская песнь. Великий вход.
8. Просительная ектения. Отца и Сына...
9. Евхаристический канон.
10. Просительная ектения.
11. Молитва Господня.
12. Един свят...Преславная днесь...
13. Поздравление Святейшего и Блаженнейшего
Католикоса-Патриарха Илии II.
14 .Со страхом Божиим и верою...Тело Христово...
15. Видехом свет истинный...
16. Буди имя Господне...Отпуст.
17. Слово приветствия Блаженнейшего Патриарха
Иерусалимского Диодора I.
18. Приветственное слово Примаса Римско-Католической
Церкви в Польше кардинала Йозефа Глемпа.
19. Приветственная речь генерального секретаря ВСЦ
доктора Эмилио Кастро.
20. Слово приветствия Святейшего Патриарха Пимена.

БЛАГОДАРСТВЕННЫЙ МОЛЕБЕН.
21. Благослови священнейший владыко...
22. Бог Господь...Тропари.
23. Прокимен. Чтение Апостола.
24. Чтение Евангелия.
25. Припевы на молебне.
26. Достойно есть.
27. Сугубая ектения.
28. Молитва в память 1000-летия Крещения Руси.
29. Кто Бог велии...
30. Всем в Православии в Земли Росистей
подвизавшимся....
31. Молитва.Святая Троице...Отпуст.
32. Тебе Бога хвалим.

CD2. КОНЦЕРТ ПОСВЯЩЕННЫЙ 1000-ЛЕТИЮ КРЕЩЕНИЯ РУСИ. (LOSSLESS).
33. Увертюра"Светлый праздник" (Оркестр Большого Театра
п/у Е. Светланова).
34. Величание Крещению Руси (Патриарший хор п/у Г. Харитонова).
35. Вечерний звон.
36. Икона. (Государственный академический русский хор
п/у В. Минина).
37. Днесь земля Русская...
38. Земле Русская.
39. О,преславного чудесе.
40. С нами Бог.
41. Блажен муж.
42. Благословен еси Господи (Государственная республиканская
хоровая капелла им. Юрловап/у С.Гусева).
43. Днесь Христос на Иордан прииде креститися...
44. Любовь святая.
45. Увертюра"1812год" (Государственный академический симфонический
оркестр СССР, духовой оркестр Большого театра, Государственный духовой оркестр РСФСР
и оркестр Комендатуры Московского Кремля п/у Е. Светланова).
Дополнительная информация: Божественная Литургия,совершенная в день празднования 1000-летия Крещения Руси и Всех Святых в Земли Российстей просиявших в Даниловом монастыре 12 июня 1988 года.
Благодарственный Молебен в честь празднования 1000-летия Крещения Руси и Всех Святых в Земли Российстей просиявших.
Концерт посвященный 1000-летию Крещения Руси. 9 июля 1988 год.Большой театр.
Объединенный хор Свято-Троицкой Сергиевой Лавры и МДА и С. под управлением архимандрита Матфея (Мормыля).
Содержание+Обложки
picpic
EAC log
Exact Audio Copy V0.99 prebeta 5 from 4. May 2009

Отчёт EAC об извлечении, выполненном 21. ноября 2009, 13:51

Хор / Концерт посвященный 1000 летию крещения Руси

Дисковод: ASUS BC-1205PT Adapter: 1 ID: 0

Режим чтения : Достоверность
Использование точного потока : Да
Отключение кэша аудио : Да
Использование указателей C2 : Нет

Коррекция смещения при чтении : 667
Способность читать области Lead-in и Lead-out : Нет
Заполнение пропущенных сэмплов тишиной : Да
Удаление блоков с тишиной в начале и конце : Нет
При вычислениях CRC использовались нулевые сэмплы : Да
Интерфейс : Встроенный Win32-интерфейс для Win NT/2000

Выходной формат : Внутренние WAV-операции
Формат сэмплов : 44.100 Гц; 16 бит; стерео

TOC извлечённого CD

Трек | Старт | Длительность | Начальный сектор | Конечный сектор
---------------------------------------------------------------------
1 | 0:00.00 | 13:28.73 | 0 | 60672
2 | 13:28.73 | 3:04.25 | 60673 | 74497
3 | 16:33.23 | 3:42.10 | 74498 | 91157
4 | 20:15.33 | 7:45.50 | 91158 | 126082
5 | 28:01.08 | 2:25.12 | 126083 | 136969
6 | 30:26.20 | 3:12.09 | 136970 | 151378
7 | 33:38.29 | 2:24.05 | 151379 | 162183
8 | 36:02.34 | 5:09.59 | 162184 | 185417
9 | 41:12.18 | 4:36.25 | 185418 | 206142
10 | 45:48.43 | 6:39.58 | 206143 | 236125
11 | 52:28.26 | 5:17.25 | 236126 | 259925
12 | 57:45.51 | 4:01.39 | 259926 | 278039
13 | 61:47.15 | 15:31.66 | 278040 | 347930

Характеристики диапазона извлечения и сообщения об ошибках

Выбранный диапазон

Имя файла C:\Хор - Концерт посвященный 1000 летию крещения Руси.wav

Пиковый уровень 98.2 %
Качество диапазона 100.0 %
CRC копии 80173CAE
Копирование... OK

Ошибок не произошло
Download

Войдите для скачивания торрент-файла

Как скачивать  ·   Правила трекера



Последний раз редактировалось: СЕРГУЛЕТ (2010-02-18 08:00), всего редактировалось 1 раз
[Профиль]  [ЛС] 

Anatolem

Стаж: 7 лет 2 месяца

Сообщений: 69

Откуда: Украина, г. Макеевка

Ussr

post 16-Дек-2010 01:17 (спустя 1 год)

[Цитировать] 

Thanks!

_________________
Слава Святей, и Единосущней, и Животворящей, и Нераздельней Троице всегда, ныне и присно, и во веки веков!
[Профиль]  [ЛС] 

Flesh1993

Стаж: 3 года 3 месяца

Сообщений: 3

Откуда: Москва

Russia

post 07-Сен-2013 01:56 (спустя 2 года 8 месяцев)

[Цитировать] 

Спасибо!
Anatolem
Thanks!-Это не наш язык пишите пожалуйста на нашем великом Русском
[Профиль]  [ЛС] 

stepan-frunze

Стаж: 7 лет 9 месяцев

Сообщений: 2565

Russia

post 07-Сен-2013 16:11 (спустя 14 часов)

[Цитировать] 

Спасибо!
[Профиль]  [ЛС] 

Celticum

Стаж: 6 лет 1 месяц

Сообщений: 8

post 23-Мар-2014 07:58 (спустя 6 месяцев)

[Цитировать] 

Спасибо большое!
[Профиль]  [ЛС] 
Показать сообщения:    
Ответить на тему

Текущее время: 08-Дек 00:15

Часовой пояс: GMT + 4



Вы не можете начинать темы
Вы не можете отвечать на сообщения
Вы не можете редактировать свои сообщения
Вы не можете удалять свои сообщения
Вы не можете голосовать в опросах
Вы не можете прикреплять файлы к сообщениям
Вы не можете скачивать файлы