Loading...
Error

(Церковная музыка Греции, Афона и Сербии (lossless).) "Византийские церковные песнопения Пятидесятнице". Поет протопсалт Панайотис Каламбакас. - 2007, APE (image + .cue), lossless

Ответить на тему
Статистика раздачи
   
 
Автор Сообщение

СЕРГУЛЕТ

Стаж: 8 лет 8 месяцев

Сообщений: 2640

Откуда: LA ROMANA

Dominicanrep

post 21-Апр-2011 16:21

[Цитировать] 

"Византийские церковные песнопения Пятидесятнице". Поет протопсалт Панайотис Каламбакас.

pic
Страна: Греция.
Жанр: Церковная музыка Греции, Афона и Сербии (lossless).
Год выпуска: 2007
Формат: APE (image + .cue)
Битрейт аудио: lossless
Продолжительность: 00:49:21
Содержание+ Обложки
picpic
EAC log
Exact Audio Copy V1.0 beta 1 from 15. November 2010

Отчёт EAC об извлечении, выполненном 21. апреля 2011, 15:59

Панайотис Каламбакас / Византийские песнопения Пятидесятницы

Дисковод: HL-DT-STDVDRAM GE20NU10 Adapter: 5 ID: 1

Режим чтения : Достоверность
Использование точного потока : Да
Отключение кэша аудио : Да
Использование указателей C2 : Нет

Коррекция смещения при чтении : 667
Способность читать области Lead-in и Lead-out : Нет
Заполнение пропущенных сэмплов тишиной : Да
Удаление блоков с тишиной в начале и конце : Нет
При вычислениях CRC использовались нулевые сэмплы : Да
Интерфейс : Встроенный Win32-интерфейс для Win NT/2000

Выходной формат : Внутренние WAV-операции
Формат сэмплов : 44.100 Гц; 16 бит; стерео

TOC извлечённого CD

Трек | Старт | Длительность | Начальный сектор | Конечный сектор
---------------------------------------------------------------------
1 | 0:00.00 | 1:00.30 | 0 | 4529
2 | 1:00.30 | 2:52.70 | 4530 | 17499
3 | 3:53.25 | 1:08.63 | 17500 | 22662
4 | 5:02.13 | 1:47.50 | 22663 | 30737
5 | 6:49.63 | 2:20.31 | 30738 | 41268
6 | 9:10.19 | 3:13.52 | 41269 | 55795
7 | 12:23.71 | 6:19.56 | 55796 | 84276
8 | 18:43.52 | 6:03.04 | 84277 | 111505
9 | 24:46.56 | 3:21.29 | 111506 | 126609
10 | 28:08.10 | 2:59.67 | 126610 | 140101
11 | 31:08.02 | 1:08.51 | 140102 | 145252
12 | 32:16.53 | 1:09.61 | 145253 | 150488
13 | 33:26.39 | 2:56.00 | 150489 | 163688
14 | 36:22.39 | 1:59.19 | 163689 | 172632
15 | 38:21.58 | 7:56.46 | 172633 | 208378
16 | 46:18.29 | 3:03.11 | 208379 | 222114

Характеристики диапазона извлечения и сообщения об ошибках

Выбранный диапазон

Имя файла C:\Users\Ирина\Desktop\Панайотис Каламбакас - Византийские песнопения Пятидесятницы.wav

Пиковый уровень 100.0 %
Скорость извлечения 0.4 X
Качество диапазона 100.0 %
CRC копии 656B2515
Копирование... OK

Ошибок не произошло

Конец отчёта
Download

Войдите на сайт, чтобы увидеть полную информацию.

Как скачивать  ·   Правила трекера

[Профиль]  [ЛС] 

vika010288

Стаж: 8 лет 3 месяца

Сообщений: 458

Georgia

post 16-Июн-2011 23:01 (спустя 1 месяц 25 дней)

[Цитировать] 

СПАСИБО!Продолжайте в том жэ духе!
[Профиль]  [ЛС] 

artemka41-8

Стаж: 5 лет 2 месяца

Сообщений: 2

Russia

post 06-Янв-2013 16:27 (спустя 1 год 6 месяцев)

[Цитировать] 

Друзья, поделитесь! Встаньте на раздачу!
[Профиль]  [ЛС] 

artemka41-8

Стаж: 5 лет 2 месяца

Сообщений: 2

Russia

post 08-Янв-2013 00:20 (спустя 1 день 7 часов)

[Цитировать] 

Спасибо! Великолепная раздача
[Профиль]  [ЛС] 

RU_FROST_

Стаж: 3 года 8 месяцев

Сообщений: 5

Russia

post 09-Мар-2014 20:12 (спустя 1 год 2 месяца)

[Цитировать] 

Люди Добрые!Раздайте сие творение,пожалуйста!
[Профиль]  [ЛС] 

RU_FROST_

Стаж: 3 года 8 месяцев

Сообщений: 5

Russia

post 17-Мар-2014 02:00 (спустя 7 дней)

[Цитировать] 

Премного Благодарен!
[Профиль]  [ЛС] 
Показать сообщения:    
Ответить на тему

Текущее время: 23-Окт 17:23

Часовой пояс: GMT + 4



Вы не можете начинать темы
Вы не можете отвечать на сообщения
Вы не можете редактировать свои сообщения
Вы не можете удалять свои сообщения
Вы не можете голосовать в опросах
Вы не можете прикреплять файлы к сообщениям
Вы не можете скачивать файлы