Loading...
Error

Канон и акафист Пресвятой Богородице - Хор Серафимо-Дивеевского монастыря_2008, FLAC (image + .cue), lossless

Ответить на тему
Статистика раздачи
   
 
Автор Сообщение

andrejpushkaryov

Модератор

Стаж: 8 лет 6 месяцев

Сообщений: 1012

Откуда: Ижевск

Russia

post 20-Окт-2009 11:14

[Цитировать] 

Канон и акафист Пресвятой Богородице

pic
Страна: Россия
Жанр: Церковные хоры
Год выпуска: 2008
Формат: FLAC (image + .cue)
Битрейт аудио: lossless
Продолжительность: 49 минут

Трэклист:
Песнь канона Богородице - 13:10
Царица моя преблагая - 2:40
Акафист пресвятой Богородице - 31:28
Дивеевские колокола - 1:14


Дополнительная информация:
Дивеево
Хор Серафимо-Дивеевского монастыря
Запись середины 90-х годов 20 века
EAC log
Exact Audio Copy V0.99 prebeta 5 from 4. May 2009

Отчёт EAC об извлечении, выполненном 20. октября 2009, 11:49

- / Канон и акафист Пресвятой Богородице

Дисковод: _NEC DVD_RW ND-4570A Adapter: 0 ID: 1

Режим чтения : Достоверность
Использование точного потока : Да
Отключение кэша аудио : Да
Использование указателей C2 : Нет

Коррекция смещения при чтении : 48
Способность читать области Lead-in и Lead-out : Нет
Заполнение пропущенных сэмплов тишиной : Да
Удаление блоков с тишиной в начале и конце : Нет
При вычислениях CRC использовались нулевые сэмплы : Да
Интерфейс : Установленный внешний ASPI-интерфейс

Выходной формат : Внутренние WAV-операции
Формат сэмплов : 44.100 Гц; 16 бит; стерео

TOC извлечённого CD

Трек | Старт | Длительность | Начальный сектор | Конечный сектор
---------------------------------------------------------------------
1 | 0:00.00 | 4:17.20 | 0 | 19294
2 | 4:17.20 | 4:14.08 | 19295 | 38352
3 | 8:31.28 | 4:45.04 | 38353 | 59731
4 | 13:16.32 | 2:39.04 | 59732 | 71660
5 | 15:55.36 | 31:30.69 | 71661 | 213479
6 | 47:26.30 | 1:14.22 | 213480 | 219051

Характеристики диапазона извлечения и сообщения об ошибках

Выбранный диапазон

Имя файла F:\Какон и акафист Пресвятой Богородице\Канон и акафист Пресвятой Богородице.wav

Пиковый уровень 100.0 %
Качество диапазона 100.0 %
CRC копии 64E645C6
Копирование... OK

Ошибок не произошло

AccurateRip: сводка
Трек 1 нет в базе данных
Трек 2 нет в базе данных
Трек 3 нет в базе данных
Трек 4 нет в базе данных
Трек 5 нет в базе данных
Трек 6 нет в базе данных
Ни одного трека нет в базе AccurateRip

Конец отчёта
Download

Войдите на сайт, чтобы увидеть полную информацию.

Как скачивать  ·   Правила трекера



Последний раз редактировалось: andrejpushkaryov (2012-11-20 08:57), всего редактировалось 1 раз
[Профиль]  [ЛС] 

GROTESK

Стаж: 8 лет 5 месяцев

Сообщений: 78

Откуда: Краснодон

Ukraine

post 04-Дек-2010 10:39 (спустя 1 год 1 месяц)

[Цитировать] 

Спасибо!!!
[Профиль]  [ЛС] 

Cectra

Стаж: 8 лет 6 месяцев

Сообщений: 26

Russia

post 09-Ноя-2012 15:48 (спустя 1 год 11 месяцев)

[Цитировать] 

Спасибо!
[Профиль]  [ЛС] 

ГалинаИВА

Стаж: 7 лет 6 месяцев

Сообщений: 19

post 23-Дек-2013 17:03 (спустя 1 год 1 месяц)

[Цитировать] 

Спаси Господи!
[Профиль]  [ЛС] 

stepan-frunze

Стаж: 8 лет 7 месяцев

Сообщений: 2564

Russia

post 23-Дек-2013 20:28 (спустя 3 часа)

[Цитировать] 

Спасибо!!!
[Профиль]  [ЛС] 

Александр 2

Стаж: 3 года 9 месяцев

Сообщений: 24

Откуда: из пос. Лесного

Ussr

post 04-Янв-2014 18:43 (спустя 11 дней)

[Цитировать] 

Хорошая раздача. Тот самый древний акафист Божией Матери, который признается полностью каноническим, так как был сочинен в древности не светскими людьми, монашествующими. Тоже благодарю...
[Профиль]  [ЛС] 
Показать сообщения:    
Ответить на тему

Текущее время: 17-Окт 17:16

Часовой пояс: GMT + 4



Вы не можете начинать темы
Вы не можете отвечать на сообщения
Вы не можете редактировать свои сообщения
Вы не можете удалять свои сообщения
Вы не можете голосовать в опросах
Вы не можете прикреплять файлы к сообщениям
Вы не можете скачивать файлы