Loading...
Error

(Церковная музыка и церковные хоры (lossless)) Церковные песнопения хоров Свято-Успенской Почаевской Лавры. 6 CD. (II часть). - 2012, APE (image + .cue), lossless

Ответить на тему
Статистика раздачи
Скачали: [ 18 ]
   
 
Автор Сообщение

СЕРГУЛЕТ

Стаж: 8 лет

Сообщений: 2639

Откуда: LA ROMANA

Dominicanrep

post 26-Дек-2012 17:48

[Цитировать] 

Церковные песнопения хоров Свято-Успенской Почаевской Лавры. 6 CD. (II часть).

pic
Жанр: Церковная музыка и церковные хоры (lossless)
Год выпуска: 2012
Формат: APE (image + .cue)
Битрейт аудио: lossless
Трэклист:
CD8. Песнопения Святой Троицы. Пятидесятница. 01:15:24
Братский хор Свято-Успенской Почаевской Лавры.
CD9. Песнопения Успения Пресвятой Богородицы. 01:12:47
Братский хор Свято-Успенской Почаевской Лавры под управлением Ярослава Барана.
CD10. (2CD). Акафист Пресвятой Богородице в честь Ея иконы Почаевская. 01:09:47
Канты Свято-Успенской Почаевской Лавры. 01:10:31
CD11. Песнопения Рождества Христова. 01:07:22
Братский хор Свято-Успенской Почаевской Лавры.
CD12. Рождественские славословия. Колядки. 01:08:14
Братский хор Свято-Успенской Почаевской Лавры.
Содержание
picpicpicpicpic
EAC log
CD 8.
Exact Audio Copy V1.0 beta 2 from 29. April 2011

Отчёт EAC об извлечении, выполненном 15. октября 2012, 9:39

Хор Почаевской Лавры / Песнопения Пятидесятнице

Дисковод: ASUS DRW-2014L1T Adapter: 2 ID: 1

Режим чтения : Достоверность
Использование точного потока : Да
Отключение кэша аудио : Да
Использование указателей C2 : Нет

Коррекция смещения при чтении : 6
Способность читать области Lead-in и Lead-out : Нет
Заполнение пропущенных сэмплов тишиной : Да
Удаление блоков с тишиной в начале и конце : Нет
При вычислениях CRC использовались нулевые сэмплы : Да
Интерфейс : Встроенный Win32-интерфейс для Win NT/2000

Выходной формат : Внутренние WAV-операции
Формат сэмплов : 44.100 Гц; 16 бит; стерео

TOC извлечённого CD

Трек | Старт | Длительность | Начальный сектор | Конечный сектор
---------------------------------------------------------------------
1 | 0:00.00 | 4:51.00 | 0 | 21824
2 | 4:51.00 | 5:36.00 | 21825 | 47024
3 | 10:27.00 | 3:30.00 | 47025 | 62774
4 | 13:57.00 | 1:10.00 | 62775 | 68024
5 | 15:07.00 | 3:22.00 | 68025 | 83174
6 | 18:29.00 | 1:57.00 | 83175 | 91949
7 | 20:26.00 | 5:18.00 | 91950 | 115799
8 | 25:44.00 | 2:23.00 | 115800 | 126524
9 | 28:07.00 | 1:12.00 | 126525 | 131924
10 | 29:19.00 | 1:59.00 | 131925 | 140849
11 | 31:18.00 | 5:13.00 | 140850 | 164324
12 | 36:31.00 | 3:55.00 | 164325 | 181949
13 | 40:26.00 | 2:33.00 | 181950 | 193424
14 | 42:59.00 | 2:59.00 | 193425 | 206849
15 | 45:58.00 | 3:31.00 | 206850 | 222674
16 | 49:29.00 | 2:50.00 | 222675 | 235424
17 | 52:19.00 | 2:11.00 | 235425 | 245249
18 | 54:30.00 | 2:22.00 | 245250 | 255899
19 | 56:52.00 | 4:43.00 | 255900 | 277124
20 | 61:35.00 | 11:52.00 | 277125 | 330524
21 | 73:27.00 | 1:58.00 | 330525 | 339374

Характеристики диапазона извлечения и сообщения об ошибках

Выбранный диапазон

Имя файла C:\Хор Почаевской Лавры - Песнопения Пятидесятнице.wav

Пиковый уровень 99.7 %
Скорость извлечения 9.3 X
Качество диапазона 100.0 %
CRC копии C69182BC
Копирование... OK

Ошибок не произошло

Конец отчёта

==== Контрольная сумма отчёта 62F6D0EADE8E47C296F6576CC3735EAF70892FED4B5896E1611A53A39A5D3ADC ====
CD 9.
Exact Audio Copy V1.0 beta 2 from 29. April 2011

Отчёт EAC об извлечении, выполненном 15. октября 2012, 9:49

Хор Почаевской Лавры / Успение Пресвятой Богородицы

Дисковод: ASUS DRW-2014L1T Adapter: 2 ID: 1

Режим чтения : Достоверность
Использование точного потока : Да
Отключение кэша аудио : Да
Использование указателей C2 : Нет

Коррекция смещения при чтении : 6
Способность читать области Lead-in и Lead-out : Нет
Заполнение пропущенных сэмплов тишиной : Да
Удаление блоков с тишиной в начале и конце : Нет
При вычислениях CRC использовались нулевые сэмплы : Да
Интерфейс : Встроенный Win32-интерфейс для Win NT/2000

Выходной формат : Внутренние WAV-операции
Формат сэмплов : 44.100 Гц; 16 бит; стерео

TOC извлечённого CD

Трек | Старт | Длительность | Начальный сектор | Конечный сектор
---------------------------------------------------------------------
1 | 0:00.00 | 0:38.00 | 0 | 2849
2 | 0:38.00 | 4:51.00 | 2850 | 24674
3 | 5:29.00 | 3:30.00 | 24675 | 40424
4 | 8:59.00 | 1:32.00 | 40425 | 47324
5 | 10:31.00 | 1:33.00 | 47325 | 54299
6 | 12:04.00 | 1:30.00 | 54300 | 61049
7 | 13:34.00 | 7:59.00 | 61050 | 96974
8 | 21:33.00 | 2:32.00 | 96975 | 108374
9 | 24:05.00 | 0:53.00 | 108375 | 112349
10 | 24:58.00 | 3:06.00 | 112350 | 126299
11 | 28:04.00 | 2:24.00 | 126300 | 137099
12 | 30:28.00 | 0:57.00 | 137100 | 141374
13 | 31:25.00 | 0:44.00 | 141375 | 144674
14 | 32:09.00 | 1:02.00 | 144675 | 149324
15 | 33:11.00 | 0:56.00 | 149325 | 153524
16 | 34:07.00 | 0:53.00 | 153525 | 157499
17 | 35:00.00 | 1:10.00 | 157500 | 162749
18 | 36:10.00 | 1:00.00 | 162750 | 167249
19 | 37:10.00 | 6:05.00 | 167250 | 194624
20 | 43:15.00 | 1:25.00 | 194625 | 200999
21 | 44:40.00 | 6:24.00 | 201000 | 229799
22 | 51:04.00 | 1:58.00 | 229800 | 238649
23 | 53:02.00 | 4:11.00 | 238650 | 257474
24 | 57:13.00 | 4:12.00 | 257475 | 276374
25 | 61:25.00 | 2:27.00 | 276375 | 287399
26 | 63:52.00 | 8:56.00 | 287400 | 327599

Характеристики диапазона извлечения и сообщения об ошибках

Выбранный диапазон

Имя файла C:\Хор Почаевской Лавры - Успение Пресвятой Богородицы.wav

Пиковый уровень 100.0 %
Скорость извлечения 9.3 X
Качество диапазона 100.0 %
CRC копии D2825610
Копирование... OK

Ошибок не произошло

Конец отчёта

==== Контрольная сумма отчёта 4AB116374BC82BE1C185A185592DFA5970F6EFEEF7749376BE4F443F54073B85 ====
CD10.1
Exact Audio Copy V1.0 beta 2 from 29. April 2011

Отчёт EAC об извлечении, выполненном 15. октября 2012, 9:59

Хор Почаевской Лавры / Акафист Пресвятой Богородице Почаевская

Дисковод: ASUS DRW-2014L1T Adapter: 2 ID: 1

Режим чтения : Достоверность
Использование точного потока : Да
Отключение кэша аудио : Да
Использование указателей C2 : Нет

Коррекция смещения при чтении : 6
Способность читать области Lead-in и Lead-out : Нет
Заполнение пропущенных сэмплов тишиной : Да
Удаление блоков с тишиной в начале и конце : Нет
При вычислениях CRC использовались нулевые сэмплы : Да
Интерфейс : Встроенный Win32-интерфейс для Win NT/2000

Выходной формат : Внутренние WAV-операции
Формат сэмплов : 44.100 Гц; 16 бит; стерео

TOC извлечённого CD

Трек | Старт | Длительность | Начальный сектор | Конечный сектор
---------------------------------------------------------------------
1 | 0:00.00 | 6:23.00 | 0 | 28724
2 | 6:23.00 | 2:04.00 | 28725 | 38024
3 | 8:27.00 | 1:33.00 | 38025 | 44999
4 | 10:00.00 | 4:01.00 | 45000 | 63074
5 | 14:01.00 | 2:18.00 | 63075 | 73424
6 | 16:19.00 | 0:37.00 | 73425 | 76199
7 | 16:56.00 | 2:12.00 | 76200 | 86099
8 | 19:08.00 | 0:51.00 | 86100 | 89924
9 | 19:59.00 | 2:16.00 | 89925 | 100124
10 | 22:15.00 | 0:52.00 | 100125 | 104024
11 | 23:07.00 | 2:09.00 | 104025 | 113699
12 | 25:16.00 | 1:00.00 | 113700 | 118199
13 | 26:16.00 | 2:10.00 | 118200 | 127949
14 | 28:26.00 | 0:52.00 | 127950 | 131849
15 | 29:18.00 | 2:26.00 | 131850 | 142799
16 | 31:44.00 | 0:52.00 | 142800 | 146699
17 | 32:36.00 | 2:25.00 | 146700 | 157574
18 | 35:01.00 | 0:45.00 | 157575 | 160949
19 | 35:46.00 | 2:09.00 | 160950 | 170624
20 | 37:55.00 | 0:56.00 | 170625 | 174824
21 | 38:51.00 | 2:13.00 | 174825 | 184799
22 | 41:04.00 | 0:57.00 | 184800 | 189074
23 | 42:01.00 | 2:22.00 | 189075 | 199724
24 | 44:23.00 | 0:41.00 | 199725 | 202799
25 | 45:04.00 | 2:02.00 | 202800 | 211949
26 | 47:06.00 | 0:53.00 | 211950 | 215924
27 | 47:59.00 | 2:10.00 | 215925 | 225674
28 | 50:09.00 | 1:59.00 | 225675 | 234599
29 | 52:08.00 | 4:18.00 | 234600 | 253949
30 | 56:26.00 | 2:25.00 | 253950 | 264824
31 | 58:51.00 | 1:23.00 | 264825 | 271049
32 | 60:14.00 | 4:23.00 | 271050 | 290774
33 | 64:37.00 | 1:23.00 | 290775 | 296999
34 | 66:00.00 | 2:10.00 | 297000 | 306749
35 | 68:10.00 | 1:38.00 | 306750 | 314099

Характеристики диапазона извлечения и сообщения об ошибках

Выбранный диапазон

Имя файла C:\Хор Почаевской Лавры - Акафист Пресвятой Богородице Почаевская.wav

Пиковый уровень 98.8 %
Скорость извлечения 8.9 X
Качество диапазона 100.0 %
CRC копии 563618EE
Копирование... OK

Ошибок не произошло

Конец отчёта

==== Контрольная сумма отчёта 5B3F948C2317EC4CC9738A0C6A50AEC77688AA929704DD532A3FB1839A37F9BE ====
CD10. 2
Exact Audio Copy V1.0 beta 2 from 29. April 2011

Отчёт EAC об извлечении, выполненном 15. октября 2012, 10:10

Хор Почаевской Лавры / Канты

Дисковод: ASUS DRW-2014L1T Adapter: 2 ID: 1

Режим чтения : Достоверность
Использование точного потока : Да
Отключение кэша аудио : Да
Использование указателей C2 : Нет

Коррекция смещения при чтении : 6
Способность читать области Lead-in и Lead-out : Нет
Заполнение пропущенных сэмплов тишиной : Да
Удаление блоков с тишиной в начале и конце : Нет
При вычислениях CRC использовались нулевые сэмплы : Да
Интерфейс : Встроенный Win32-интерфейс для Win NT/2000

Выходной формат : Внутренние WAV-операции
Формат сэмплов : 44.100 Гц; 16 бит; стерео

TOC извлечённого CD

Трек | Старт | Длительность | Начальный сектор | Конечный сектор
---------------------------------------------------------------------
1 | 0:00.00 | 3:56.00 | 0 | 17699
2 | 3:56.00 | 4:25.00 | 17700 | 37574
3 | 8:21.00 | 3:47.00 | 37575 | 54599
4 | 12:08.00 | 6:50.00 | 54600 | 85349
5 | 18:58.00 | 3:35.00 | 85350 | 101474
6 | 22:33.00 | 4:22.00 | 101475 | 121124
7 | 26:55.00 | 4:52.00 | 121125 | 143024
8 | 31:47.00 | 3:04.00 | 143025 | 156824
9 | 34:51.00 | 5:52.00 | 156825 | 183224
10 | 40:43.00 | 4:43.00 | 183225 | 204449
11 | 45:26.00 | 3:41.00 | 204450 | 221024
12 | 49:07.00 | 3:37.00 | 221025 | 237299
13 | 52:44.00 | 4:07.00 | 237300 | 255824
14 | 56:51.00 | 6:56.00 | 255825 | 287024
15 | 63:47.00 | 6:45.00 | 287025 | 317399

Характеристики диапазона извлечения и сообщения об ошибках

Выбранный диапазон

Имя файла C:\Хор Почаевской Лавры - Канты.wav

Пиковый уровень 98.8 %
Скорость извлечения 9.0 X
Качество диапазона 99.9 %
CRC копии 1F6895C6
Копирование... OK

Ошибок не произошло

Конец отчёта

==== Контрольная сумма отчёта A4A2FB2693A7ADD2A6D1938EE107799E179ADC30F0F9C0F4FD22CCA906B5A109 ====
CD11.
Exact Audio Copy V1.0 beta 2 from 29. April 2011

Отчёт EAC об извлечении, выполненном 26. декабря 2012, 12:00

Хор Почаевской Лавры / Песнопения Рождества Христова

Дисковод: ASUS DRW-2014L1T Adapter: 2 ID: 1

Режим чтения : Достоверность
Использование точного потока : Да
Отключение кэша аудио : Да
Использование указателей C2 : Нет

Коррекция смещения при чтении : 6
Способность читать области Lead-in и Lead-out : Нет
Заполнение пропущенных сэмплов тишиной : Да
Удаление блоков с тишиной в начале и конце : Нет
При вычислениях CRC использовались нулевые сэмплы : Да
Интерфейс : Встроенный Win32-интерфейс для Win NT/2000

Выходной формат : Внутренние WAV-операции
Формат сэмплов : 44.100 Гц; 16 бит; стерео

TOC извлечённого CD

Трек | Старт | Длительность | Начальный сектор | Конечный сектор
---------------------------------------------------------------------
1 | 0:00.00 | 1:57.00 | 0 | 8774
2 | 1:57.00 | 2:52.00 | 8775 | 21674
3 | 4:49.00 | 3:01.00 | 21675 | 35249
4 | 7:50.00 | 1:15.00 | 35250 | 40874
5 | 9:05.00 | 2:07.00 | 40875 | 50399
6 | 11:12.00 | 2:36.00 | 50400 | 62099
7 | 13:48.00 | 1:51.00 | 62100 | 70424
8 | 15:39.00 | 1:36.00 | 70425 | 77624
9 | 17:15.00 | 2:23.00 | 77625 | 88349
10 | 19:38.00 | 2:24.00 | 88350 | 99149
11 | 22:02.00 | 5:13.00 | 99150 | 122624
12 | 27:15.00 | 3:55.00 | 122625 | 140249
13 | 31:10.00 | 1:52.00 | 140250 | 148649
14 | 33:02.00 | 0:54.00 | 148650 | 152699
15 | 33:56.00 | 0:51.00 | 152700 | 156524
16 | 34:47.00 | 0:49.00 | 156525 | 160199
17 | 35:36.00 | 0:57.00 | 160200 | 164474
18 | 36:33.00 | 1:01.00 | 164475 | 169049
19 | 37:34.00 | 0:54.00 | 169050 | 173099
20 | 38:28.00 | 1:11.00 | 173100 | 178424
21 | 39:39.00 | 1:24.00 | 178425 | 184724
22 | 41:03.00 | 1:49.00 | 184725 | 192899
23 | 42:52.00 | 2:29.00 | 192900 | 204074
24 | 45:21.00 | 4:39.00 | 204075 | 224999
25 | 50:00.00 | 3:39.00 | 225000 | 241424
26 | 53:39.00 | 6:05.00 | 241425 | 268799
27 | 59:44.00 | 7:39.00 | 268800 | 303224

Характеристики диапазона извлечения и сообщения об ошибках

Выбранный диапазон

Имя файла C:\Хор Почаевской Лавры - Песнопения Рождества Христова.wav

Пиковый уровень 99.1 %
Скорость извлечения 8.4 X
Качество диапазона 100.0 %
CRC копии 0A1F93A0
Копирование... OK

Ошибок не произошло

Конец отчёта

==== Контрольная сумма отчёта 039D51AF2927B534776CD2C18D850D1CB220E66BB8CBE73A1743EB41D45201B2 ====
CD 12.
Exact Audio Copy V1.0 beta 2 from 29. April 2011

Отчёт EAC об извлечении, выполненном 26. декабря 2012, 12:23

Хор Почаевской Лавры / Колядки

Дисковод: ASUS DRW-2014L1T Adapter: 2 ID: 1

Режим чтения : Достоверность
Использование точного потока : Да
Отключение кэша аудио : Да
Использование указателей C2 : Нет

Коррекция смещения при чтении : 6
Способность читать области Lead-in и Lead-out : Нет
Заполнение пропущенных сэмплов тишиной : Да
Удаление блоков с тишиной в начале и конце : Нет
При вычислениях CRC использовались нулевые сэмплы : Да
Интерфейс : Встроенный Win32-интерфейс для Win NT/2000

Выходной формат : Внутренние WAV-операции
Формат сэмплов : 44.100 Гц; 16 бит; стерео

TOC извлечённого CD

Трек | Старт | Длительность | Начальный сектор | Конечный сектор
---------------------------------------------------------------------
1 | 0:00.00 | 1:45.00 | 0 | 7874
2 | 1:45.00 | 2:08.00 | 7875 | 17474
3 | 3:53.00 | 2:34.00 | 17475 | 29024
4 | 6:27.00 | 3:39.00 | 29025 | 45449
5 | 10:06.00 | 3:42.00 | 45450 | 62099
6 | 13:48.00 | 3:11.00 | 62100 | 76424
7 | 16:59.00 | 2:46.00 | 76425 | 88874
8 | 19:45.00 | 2:19.00 | 88875 | 99299
9 | 22:04.00 | 2:40.00 | 99300 | 111299
10 | 24:44.00 | 1:30.00 | 111300 | 118049
11 | 26:14.00 | 2:06.00 | 118050 | 127499
12 | 28:20.00 | 1:56.00 | 127500 | 136199
13 | 30:16.00 | 1:35.00 | 136200 | 143324
14 | 31:51.00 | 4:00.00 | 143325 | 161324
15 | 35:51.00 | 2:25.00 | 161325 | 172199
16 | 38:16.00 | 2:44.00 | 172200 | 184499
17 | 41:00.00 | 2:20.00 | 184500 | 194999
18 | 43:20.00 | 3:44.00 | 195000 | 211799
19 | 47:04.00 | 4:16.00 | 211800 | 230999
20 | 51:20.00 | 2:38.00 | 231000 | 242849
21 | 53:58.00 | 3:38.00 | 242850 | 259199
22 | 57:36.00 | 1:22.00 | 259200 | 265349
23 | 58:58.00 | 3:09.00 | 265350 | 279524
24 | 62:07.00 | 6:08.00 | 279525 | 307124

Характеристики диапазона извлечения и сообщения об ошибках

Выбранный диапазон

Имя файла C:\Хор Почаевской Лавры - Колядки.wav

Пиковый уровень 97.7 %
Скорость извлечения 7.4 X
Качество диапазона 99.9 %
CRC копии 936EB035
Копирование... OK

Ошибок не произошло

Конец отчёта

==== Контрольная сумма отчёта 7A3AD343B59C0E2BF2D04FE5D017D58C736F60121EE5C1B2E7C31F763047AD0C ====
Дополнительная информация: Полностью обложки лежат в раздаче.
Часть I: http://pravtor.ru/viewtopic.php?t=11050
Download

Войдите для скачивания торрент-файла

Как скачивать  ·   Правила трекера

[Профиль]  [ЛС] 

AllaVal27

Стаж: 3 года 3 месяца

Сообщений: 139

Canada

post 13-Ноя-2013 02:34 (спустя 10 месяцев)

[Цитировать] 

Спасибо!
[Профиль]  [ЛС] 

devss

Стаж: 7 лет 3 месяца

Сообщений: 17

Откуда: РФ

Russia

post 02-Дек-2013 19:26 (спустя 19 дней)

[Цитировать] 

и это тоже прошу раздать Smile
[Профиль]  [ЛС] 

stepan-frunze

Стаж: 7 лет 11 месяцев

Сообщений: 2565

Russia

post 02-Дек-2013 23:26 (спустя 3 часа)

[Цитировать] 

Спасибо!
[Профиль]  [ЛС] 

eestimees

Стаж: 7 лет 9 месяцев

Сообщений: 21

Estonia

post 11-Мар-2015 23:55 (спустя 1 год 3 месяца)

[Цитировать] 

Спасибо!
[Профиль]  [ЛС] 

Tyristo

Стаж: 3 года 6 месяцев

Сообщений: 11

Ukraine

post 22-Мар-2015 22:33 (спустя 10 дней)

[Цитировать] 

Спаси Господи
[Профиль]  [ЛС] 

CEPBEP4

Стаж: 5 лет 11 месяцев

Сообщений: 133

Откуда: ОРЕНБУРГ

Russia

post 07-Июн-2015 13:44 (спустя 2 месяца 15 дней)

[Цитировать] 

Спасибо, качаю!

_________________
pic
pic 100 Мбит/с pic 100 Мбит/с pic
[Профиль]  [ЛС] 

mangealic

Стаж: 2 года 6 месяцев

Сообщений: 22

post 16-Янв-2016 18:35 (спустя 7 месяцев)

[Цитировать] 

Спасибо!
[Профиль]  [ЛС] 

konuk2007

Стаж: 2 года 9 месяцев

Сообщений: 15

post 27-Мар-2016 12:57 (спустя 2 месяца 10 дней)

[Цитировать] 

Станьте кто нибудь на раздачу.
[Профиль]  [ЛС] 
Показать сообщения:    
Ответить на тему

Текущее время: 21-Фев 09:12

Часовой пояс: GMT + 4



Вы не можете начинать темы
Вы не можете отвечать на сообщения
Вы не можете редактировать свои сообщения
Вы не можете удалять свои сообщения
Вы не можете голосовать в опросах
Вы не можете прикреплять файлы к сообщениям
Вы не можете скачивать файлы