Loading...
Error

(Богослужебные песнопения) Хор братии Свято-Успенской Почаевской Лавры - 1996, FLAC (image + .cue), lossless

Ответить на тему
Статистика раздачи
no
   
 
Автор Сообщение

сервп62

Стаж: 8 лет 3 месяца

Сообщений: 303

post 07-Май-2009 13:50

[Цитировать] 

Хор братии Свято-Успенской Почаевской Лавры
pic
Страна: Украина
Жанр: Богослужебные песнопения
Годы выпуска: 1996
Формат:: FLAC (image + .cue)
Битрейт аудио: lossless
Дополнительно: приложены сканы обложек и диска в разрешении 300 dpi
список песнопений
01. Колокольный звон Почаевской Лавры 1:23
02. Великая Ектиния 5:43
03. Благослови, душе моя, Господа 2:11
04. Слава. Единородный сыне 2:13
05. Во Царствии Твоем 4:08
06. Святый Боже 1:15
07. Аллилуия 1:32
08. Херувимская Песнь 5:52
09. Отца и Сына 0:44
10. Достойно есть 1:59
11. Тебе Бога хвалим (концерт) 6:26
12. Высшую Небес (концерт) 3:37
13. О, Всепетая Мати 4:42
14. Под Твою Милость 2:19
15. Колокольный звон Почаевской Лавры 0:52
отчёт EAC об извлечении
Exact Audio Copy V0.99 prebeta 4 from 23. January 2008

Отчёт EAC об извлечении, выполненном 1. мая 2009, 20:10

Unknown Artist / Unknown Title

Дисковод: Optiarc DVD RW AD-7530A Adapter: 0 ID: 1

Режим чтения : Достоверность
Использование точного потока : Да
Отключение кэша аудио : Да
Использование указателей C2 : Нет

Комбинированное смещение чтения/записи : 0
Способность читать области Lead-in и Lead-out : Нет
Заполнение пропущенных сэмплов тишиной : Да
Удаление блоков с тишиной в начале и конце : Нет
При вычислениях CRC использовались нулевые сэмплы : Да
Интерфейс : Установленный внешний ASPI-интерфейс

Выходной формат : Внутренние WAV-операции
Формат сэмплов : 44.100 Гц; 16 бит; стерео

TOC извлечённого CD

Трек | Старт | Длительность | Начальный сектор | Конечный сектор
---------------------------------------------------------------------
1 | 0:00.00 | 1:23.01 | 0 | 6225
2 | 1:23.01 | 5:43.16 | 6226 | 31966
3 | 7:06.17 | 2:11.15 | 31967 | 41806
4 | 9:17.32 | 2:13.17 | 41807 | 51798
5 | 11:30.49 | 4:07.58 | 51799 | 70381
6 | 15:38.32 | 1:14.61 | 70382 | 75992
7 | 16:53.18 | 1:32.25 | 75993 | 82917
8 | 18:25.43 | 5:52.57 | 82918 | 109374
9 | 24:18.25 | 0:43.61 | 109375 | 112660
10 | 25:02.11 | 1:59.20 | 112661 | 121605
11 | 27:01.31 | 6:25.68 | 121606 | 150548
12 | 33:27.24 | 3:36.74 | 150549 | 166822
13 | 37:04.23 | 4:42.10 | 166823 | 187982
14 | 41:46.33 | 2:19.39 | 187983 | 198446
15 | 44:05.72 | 0:52.12 | 198447 | 202358

Характеристики диапазона извлечения и сообщения об ошибках

Выбранный диапазон

Имя файла C:\Documents and Settings\сергей\Мои документы\Unknown Artist - Unknown Title.wav

Пиковый уровень 100.0 %
Качество диапазона 99.8 %
CRC копии 884CD99E
Копирование... OK

Ошибок не произошло

Конец отчёта
Download

Войдите для скачивания торрент-файла

Как скачивать  ·   Правила трекера

[Профиль]  [ЛС] 

spikerQ

Стаж: 8 лет

Сообщений: 7

Russia

post 18-Авг-2009 23:40 (спустя 3 месяца 11 дней)

[Цитировать] 

Спасибо давно искал!!!
[Профиль]  [ЛС] 

Ily15

Стаж: 7 лет 6 месяцев

Сообщений: 1

Russia

post 19-Ноя-2009 21:31 (спустя 3 месяца)

[Цитировать] 

Спасибо.
[Профиль]  [ЛС] 

devss

Стаж: 7 лет 6 месяцев

Сообщений: 17

Откуда: РФ

Russia

post 29-Авг-2010 20:26 (спустя 9 месяцев)

[Цитировать] 

прошу посидировать
[Профиль]  [ЛС] 

Нафаня

post 27-Ноя-2010 17:23 (спустя 2 месяца 28 дней)

[Цитировать] 

прошу посидировать
 

Нафаня

post 27-Ноя-2010 20:05 (спустя 2 часа 41 минута)

[Цитировать] 

Спасибо! Скачал.
P.S. Почти год ('91-'92) жил в Почаеве. Часто бывал в Лавре. А тут

Цитата:

Годы выпуска: 1996
 

Serjimag

Стаж: 7 лет 5 месяцев

Сообщений: 8

Откуда: Россия

Russia

post 29-Ноя-2010 14:16 (спустя 1 день 18 часов)

[Цитировать] 

Спаси Бог!
[Профиль]  [ЛС] 

Tyristo

Стаж: 3 года 9 месяцев

Сообщений: 11

Ukraine

post 22-Мар-2015 22:36 (спустя 4 года 3 месяца)

[Цитировать] 

Очень благодарю
[Профиль]  [ЛС] 
Показать сообщения:    
Ответить на тему

Текущее время: 22-Май 21:21

Часовой пояс: GMT + 4



Вы не можете начинать темы
Вы не можете отвечать на сообщения
Вы не можете редактировать свои сообщения
Вы не можете удалять свои сообщения
Вы не можете голосовать в опросах
Вы не можете прикреплять файлы к сообщениям
Вы не можете скачивать файлы