Loading...
Error

(Церковная музыка Греции, Афона и Сербии (mp3 и другие lossy-форматы).) Мъжки Църковен хор при катедрален храм ''Св. Успение Богородично''. гр. Варна - 50 години. (регенты Антон Момчилов и Нели Макавеева). - 2006, APE (image + .cue), lossless

Ответить на тему
Статистика раздачи
   
 
Автор Сообщение

СЕРГУЛЕТ

Стаж: 8 лет 8 месяцев

Сообщений: 2640

Откуда: LA ROMANA

Dominicanrep

post 05-Июл-2011 11:49

[Цитировать] 

Мъжки Църковен хор при катедрален храм ''Св. Успение Богородично''. гр. Варна - 50 години. (регенты Антон Момчилов и Нели Макавеева).

pic
Страна: Болгария
Жанр: Церковная музыка Греции, Афона и Сербии (mp3 и другие lossy-форматы).
Год выпуска: 2006
Формат: APE (image + .cue)
Битрейт аудио: lossless
Продолжительность: 00:38:00
Трэклист:
1. Отче наш, източен напев
2. Богородице Дево, обработил свщк. Кирил Попов
3. Буди имя Господне, обработил свщк. Кирил Попов
4. Под твою милост, Бортнянски
5. Молитву пролию, Архангельски, солист - Г. Койчев
6. Покаяние, А. Ведел
7. Ангел вопияше, Петър Динев
8. Хвалите Господа с небес, Петър Динев
9. Херувимска песен, Хр. Манолов
10. Тебе поем, Д. Христов
11. Достойно ест, Петър Динев
12. Двенадцать разбойников, обработил С. Жаров, солист - Г. Койчев
13. Многая лета, Бортнянски
EAC log
Exact Audio Copy V1.0 beta 1 from 15. November 2010

Отчёт EAC об извлечении, выполненном 5. марта 2011, 14:13

Мъжки Църковен хор при катедрален храм "Св. Успение Богородично" - Варна / 50 години

Дисковод: TSSTcorpDVD+-RW TS-T633C Adapter: 2 ID: 0

Режим чтения : Достоверность
Использование точного потока : Да
Отключение кэша аудио : Да
Использование указателей C2 : Нет

Коррекция смещения при чтении : 6
Способность читать области Lead-in и Lead-out : Нет
Заполнение пропущенных сэмплов тишиной : Да
Удаление блоков с тишиной в начале и конце : Нет
При вычислениях CRC использовались нулевые сэмплы : Да
Интерфейс : Встроенный Win32-интерфейс для Win NT/2000

Выходной формат : Внутренние WAV-операции
Формат сэмплов : 44.100 Гц; 16 бит; стерео

TOC извлечённого CD

Трек | Старт | Длительность | Начальный сектор | Конечный сектор
---------------------------------------------------------------------
1 | 0:00.00 | 2:19.30 | 0 | 10454
2 | 2:19.30 | 0:41.56 | 10455 | 13585
3 | 3:01.11 | 0:42.48 | 13586 | 16783
4 | 3:43.59 | 2:51.40 | 16784 | 29648
5 | 6:35.24 | 4:29.53 | 29649 | 49876
6 | 11:05.02 | 5:56.10 | 49877 | 76586
7 | 17:01.12 | 2:14.10 | 76587 | 86646
8 | 19:15.22 | 2:16.09 | 86647 | 96855
9 | 21:31.31 | 4:27.68 | 96856 | 116948
10 | 25:59.24 | 1:53.14 | 116949 | 125437
11 | 27:52.38 | 2:22.36 | 125438 | 136123
12 | 30:14.74 | 6:19.16 | 136124 | 164564
13 | 36:34.15 | 1:25.38 | 164565 | 170977

Характеристики диапазона извлечения и сообщения об ошибках

Выбранный диапазон

Имя файла C:\Users\Артём\Desktop\Мъжки Църковен хор при катедрален храм ''Св. Успение Богородично'' - Варна - 50 години\Мъжки Църковен хор при катедрален храм ''Св. Успение Богородично'' - Варна - 50 години.wav

Пиковый уровень 69.7 %
0.1 X
Качество диапазона 100.0 %
CRC теста 91FC05F1
CRC копии 91FC05F1
Копирование... OK

Ошибок не произошло

Конец отчёта
Download

Войдите на сайт, чтобы увидеть полную информацию.

Как скачивать  ·   Правила трекера

[Профиль]  [ЛС] 

stepan-frunze

Стаж: 8 лет 7 месяцев

Сообщений: 2564

Russia

post 21-Авг-2013 00:00 (спустя 2 года 1 месяц)

[Цитировать] 

Благодарю!!!
[Профиль]  [ЛС] 
Показать сообщения:    
Ответить на тему

Текущее время: 20-Окт 21:52

Часовой пояс: GMT + 4



Вы не можете начинать темы
Вы не можете отвечать на сообщения
Вы не можете редактировать свои сообщения
Вы не можете удалять свои сообщения
Вы не можете голосовать в опросах
Вы не можете прикреплять файлы к сообщениям
Вы не можете скачивать файлы