Loading...
Error

(Церковная музыка и церковные хоры (lossless).) "Звезда Неугасаемая". (Певческая служба святой преподобномученице Великой княгине Елисавете . Распева Супрасльской лавры XVI века). - 2012, APE (image + .cue), lossless

Ответить на тему
Статистика раздачи
Скачали: [ 7 ]
   
 
Автор Сообщение

СЕРГУЛЕТ

Стаж: 8 лет 3 месяца

Сообщений: 2639

Откуда: LA ROMANA

Dominicanrep

post 16-Июн-2012 19:13

[Цитировать] 

"Звезда Неугасаемая". (Певческая служба святой преподобномученице Великой княгине Елисавете. Распева Супрасльской лавры XVI века).

pic
Страна: Россия. Анатолий Конотоп.
Жанр: Церковная музыка и церковные хоры (lossless).
Год выпуска: 2012
Формат: APE (image + .cue)
Битрейт аудио: lossless
Продолжительность: 01:13:55
Содержание+ Служба
picpicpic
EAC log
Exact Audio Copy V1.0 beta 2 from 29. April 2011

Отчёт EAC об извлечении, выполненном 16. июня 2012, 18:19

Синодальный хор / Звезда Неугасаемая

Дисковод: ASUS DRW-2014L1T Adapter: 2 ID: 1

Режим чтения : Достоверность
Использование точного потока : Да
Отключение кэша аудио : Да
Использование указателей C2 : Нет

Коррекция смещения при чтении : 6
Способность читать области Lead-in и Lead-out : Нет
Заполнение пропущенных сэмплов тишиной : Да
Удаление блоков с тишиной в начале и конце : Нет
При вычислениях CRC использовались нулевые сэмплы : Да
Интерфейс : Встроенный Win32-интерфейс для Win NT/2000

Выходной формат : Внутренние WAV-операции
Формат сэмплов : 44.100 Гц; 16 бит; стерео

TOC извлечённого CD

Трек | Старт | Длительность | Начальный сектор | Конечный сектор
---------------------------------------------------------------------
1 | 0:00.00 | 11:15.64 | 0 | 50688
2 | 11:15.64 | 2:36.31 | 50689 | 62419
3 | 13:52.20 | 1:31.40 | 62420 | 69284
4 | 15:23.60 | 2:02.00 | 69285 | 78434
5 | 17:25.60 | 1:54.27 | 78435 | 87011
6 | 19:20.12 | 2:45.73 | 87012 | 99459
7 | 22:06.10 | 3:38.17 | 99460 | 115826
8 | 25:44.27 | 0:32.72 | 115827 | 118298
9 | 26:17.24 | 1:31.13 | 118299 | 125136
10 | 27:48.37 | 3:39.69 | 125137 | 141630
11 | 31:28.31 | 2:35.14 | 141631 | 153269
12 | 34:03.45 | 2:02.25 | 153270 | 162444
13 | 36:05.70 | 5:11.43 | 162445 | 185812
14 | 41:17.38 | 2:03.14 | 185813 | 195051
15 | 43:20.52 | 2:34.43 | 195052 | 206644
16 | 45:55.20 | 2:25.06 | 206645 | 217525
17 | 48:20.26 | 2:14.43 | 217526 | 227618
18 | 50:34.69 | 2:11.22 | 227619 | 237465
19 | 52:46.16 | 2:26.64 | 237466 | 248479
20 | 55:13.05 | 1:19.53 | 248480 | 254457
21 | 56:32.58 | 1:35.45 | 254458 | 261627
22 | 58:08.28 | 1:57.38 | 261628 | 270440
23 | 60:05.66 | 1:20.06 | 270441 | 276446
24 | 61:25.72 | 2:34.69 | 276447 | 288065
25 | 64:00.66 | 9:53.06 | 288066 | 332546

Характеристики диапазона извлечения и сообщения об ошибках

Выбранный диапазон

Имя файла C:\Синодальный хор - Звезда Неугасаемая.wav

Пиковый уровень 95.7 %
Скорость извлечения 8.2 X
Качество диапазона 100.0 %
CRC копии 3FE41525
Копирование... OK

Ошибок не произошло

Конец отчёта

==== Контрольная сумма отчёта ADC5F5BC06ECD74CB8ABE74081B1E77673E4DBFD7D9FF3BA41B5085A9260D869 ====
Дополнительная информация: Обработка и моделирование распевов Супрасльской лавры XVI века - Анатолий Конотоп.
Богослужебные возглашения - Митрополит Иларион (Алфеев).
Синодальный хор - регент, канонарх Алексей Пузаков.
Место записи - Покровский собор Марфо - Мариинской обители. г. Москва.
Обложка в раздаче.
Download

Войдите для скачивания торрент-файла

Как скачивать  ·   Правила трекера

[Профиль]  [ЛС] 

Дмитрий Клепцов

Стаж: 6 лет 2 месяца

Сообщений: 2

Russia

post 22-Июн-2012 19:00 (спустя 5 дней)

[Цитировать] 

Благодарю!
[Профиль]  [ЛС] 

kostilys

Стаж: 4 года 8 месяцев

Сообщений: 4

Belarus

post 09-Авг-2013 19:26 (спустя 1 год 1 месяц)

[Цитировать] 

пожалуйста, раздайте.
Очень хочу послушать
Спаси, Господи
[Профиль]  [ЛС] 

stepan-frunze

Стаж: 8 лет 2 месяца

Сообщений: 2565

Russia

post 12-Авг-2013 00:47 (спустя 2 дня 5 часов)

[Цитировать] 

Благодарю!
[Профиль]  [ЛС] 

Posluhnik

Стаж: 5 лет 1 месяц

Сообщений: 1

post 11-Май-2014 18:40 (спустя 8 месяцев)

[Цитировать] 

Дайте пожалуйста скорости!
[Профиль]  [ЛС] 

CEPBEP4

Стаж: 6 лет 2 месяца

Сообщений: 133

Откуда: ОРЕНБУРГ

Russia

post 07-Июн-2015 12:24 (спустя 1 год)

[Цитировать] 

Спасибо качаю!

_________________
pic
pic 100 Мбит/с pic 100 Мбит/с pic
[Профиль]  [ЛС] 

Св. Георгий

Стаж: 8 месяцев

Сообщений: 1

Russia

post 03-Окт-2016 19:16 (спустя 1 год 3 месяца)

[Цитировать] 

Спасибо за скорость!
[Профиль]  [ЛС] 
Показать сообщения:    
Ответить на тему

Текущее время: 23-Май 20:51

Часовой пояс: GMT + 4



Вы не можете начинать темы
Вы не можете отвечать на сообщения
Вы не можете редактировать свои сообщения
Вы не можете удалять свои сообщения
Вы не можете голосовать в опросах
Вы не можете прикреплять файлы к сообщениям
Вы не можете скачивать файлы