Loading...
Error

(Песнопения знаменного распева) Хор учащихся московского духовного училища РПСЦ - Приидите поклонимся - 2007, FLAC (image + .cue), lossless

Ответить на тему
Статистика раздачи
   
 
Автор Сообщение

etrusk

Стаж: 7 лет 2 месяца

Сообщений: 128

Russia

post 01-Дек-2010 20:47

[Цитировать] 

Хор учащихся московского духовного училища РПСЦ - Приидите поклонимся

pic
Страна: Россия
Жанр: Песнопения знаменного распева
Год выпуска: 2007
Формат: FLAC (image + .cue)
Битрейт аудио: lossless
Продолжительность: 1:11:03
Трэклист:
1. Приидите поклонимся - 1:33
2. Благослови душе моя Господа - 3:28
3. Свете Тихии - 1:49
4. Стихи из Псалтыри, с припевами - 5:32
5. Величание на Рожество Богородицы - 0:45
6. 'Во святых святая', стихера на Введение на 'Господи воззвах', глас 4 - 1:07
7. Величание на Благовещение, демественный распев - 1:48
8. 'Днесь раждается от девицы', стихера в навечерие Рожества Христова, глас 6 - 7:35
9. 'Богородице Дево', задостойник на Сретение, с припевами, глас 3 - 2:57
10. 'Руку Твою', стихера на Богоявление , глас 5 - 4:47
11. Задостойник на Преображение, глас 4 - 0:52
12. 'На Сион гору взыди', ирмос 6 песни канона в неделю Ваий, глас 4 - 1:42
13. Кондак Вознесению, глас 6 - 2:07
14. 'Царю Небесный', стихера в неделю 8-ую по Пасхе, глас 6 - 2:16
15. Ирмос 1 песни канона на Успение Богородицы, глас 1 - 1:22
16. Кондак на Успение Богородицы, глас 2 - 1:32
17. 'Егоже древле Моисей прообразова собою', стихера на Воздвижение Креста, глас 8 - 3:24
18. Святый Боже по-гречески, демественный распев - 1:08
19. 'Тебе Одеющагося', в Великую Субботу, глас 5 - 5:38
20. Тропарь Пасхе, глас 5 - 0:49
21. 'Воскресение Христово видевше', стихера воскресная, глас 7 - 3:13
22. 'Камени знаменану от людей', тропарь воскресен, глас 1 - 2:17
23. 'Преблагословенна еси', Богородичен воскресен, глас 2 - 1:06
24. Тропарь Пасхе, демественный распев - 2:02
25. Тропарь пасхе, глас 6 - 0:49
26. Тропарь Пасхе по-гречески, иерусалимский распев - 0:41
27. Пасхальный канон, песнь 1-6 - 6:25
28. Задостойник Пасхе, болгарский распев - 2:18
Дополнительная информация:
EAC log
Exact Audio Copy V0.99 prebeta 5 from 4. May 2009

Отчёт EAC об извлечении, выполненном 28. октября 2010, 23:29

Хор московского духовного училища РПСЦ / Приидите поклонимся

Дисковод: Optiarc DVD RW AD-7200S Adapter: 5 ID: 0

Режим чтения : Достоверность
Использование точного потока : Да
Отключение кэша аудио : Да
Использование указателей C2 : Нет

Коррекция смещения при чтении : 48
Способность читать области Lead-in и Lead-out : Нет
Заполнение пропущенных сэмплов тишиной : Да
Удаление блоков с тишиной в начале и конце : Нет
При вычислениях CRC использовались нулевые сэмплы : Да
Интерфейс : Встроенный Win32-интерфейс для Win NT/2000

Выходной формат : Внутренние WAV-операции
Формат сэмплов : 44.100 Гц; 16 бит; стерео

TOC извлечённого CD

Трек | Старт | Длительность | Начальный сектор | Конечный сектор
---------------------------------------------------------------------
1 | 0:00.00 | 1:33.08 | 0 | 6982
2 | 1:33.08 | 3:28.31 | 6983 | 22613
3 | 5:01.39 | 1:49.13 | 22614 | 30801
4 | 6:50.52 | 5:32.18 | 30802 | 55719
5 | 12:22.70 | 0:45.16 | 55720 | 59110
6 | 13:08.11 | 1:06.56 | 59111 | 64116
7 | 14:14.67 | 1:47.68 | 64117 | 72209
8 | 16:02.60 | 7:35.19 | 72210 | 106353
9 | 23:38.04 | 2:56.42 | 106354 | 119595
10 | 26:34.46 | 4:47.04 | 119596 | 141124
11 | 31:21.50 | 0:51.63 | 141125 | 145012
12 | 32:13.38 | 1:42.06 | 145013 | 152668
13 | 33:55.44 | 2:07.25 | 152669 | 162218
14 | 36:02.69 | 2:16.19 | 162219 | 172437
15 | 38:19.13 | 1:22.05 | 172438 | 178592
16 | 39:41.18 | 1:32.19 | 178593 | 185511
17 | 41:13.37 | 3:24.00 | 185512 | 200811
18 | 44:37.37 | 1:07.53 | 200812 | 205889
19 | 45:45.15 | 5:38.17 | 205890 | 231256
20 | 51:23.32 | 0:48.38 | 231257 | 234894
21 | 52:11.70 | 3:13.05 | 234895 | 249374
22 | 55:25.00 | 2:17.21 | 249375 | 259670
23 | 57:42.21 | 1:05.65 | 259671 | 264610
24 | 58:48.11 | 2:02.14 | 264611 | 273774
25 | 60:50.25 | 0:49.20 | 273775 | 277469
26 | 61:39.45 | 0:40.50 | 277470 | 280519
27 | 62:20.20 | 6:24.56 | 280520 | 309375
28 | 68:45.01 | 2:17.70 | 309376 | 319720

Характеристики диапазона извлечения и сообщения об ошибках

Выбранный диапазон

Имя файла K:\Audio\Spiritual_Religious_Chants\Россия\Старообрядцы\Хор московского духовного училища РПСЦ\2007 - Приидите поклонимся\Приидите поклонимся.wav

Пиковый уровень 81.7 %
Качество диапазона 100.0 %
CRC теста 00B5C960
CRC копии 00B5C960
Копирование... OK

Ошибок не произошло

AccurateRip: сводка
Трек 1 нет в базе данных
Трек 2 нет в базе данных
Трек 3 нет в базе данных
Трек 4 нет в базе данных
Трек 5 нет в базе данных
Трек 6 нет в базе данных
Трек 7 нет в базе данных
Трек 8 нет в базе данных
Трек 9 нет в базе данных
Трек 10 нет в базе данных
Трек 11 нет в базе данных
Трек 12 нет в базе данных
Трек 13 нет в базе данных
Трек 14 нет в базе данных
Трек 15 нет в базе данных
Трек 16 нет в базе данных
Трек 17 нет в базе данных
Трек 18 нет в базе данных
Трек 19 нет в базе данных
Трек 20 нет в базе данных
Трек 21 нет в базе данных
Трек 22 нет в базе данных
Трек 23 нет в базе данных
Трек 24 нет в базе данных
Трек 25 нет в базе данных
Трек 26 нет в базе данных
Трек 27 нет в базе данных
Трек 28 нет в базе данных
Ни одного трека нет в базе AccurateRip

Конец отчёта
Данный диск - сборник богослужебных песнопений знаменного и демественного распева в исполнении старообрядцев-поповцев Русской православной старообрядческой церкви (РПСЦ). Сайт издателя: http://www.fita.su/
Личное мнение: весьма неплохое исполнение, отличающееся ровностью и строгостью, всё сделано скромно и со вкусом. Хотя, на мой взгляд, несколько пресновато.
Буклет, обложки, лог и индексные карты прилагаются.
Быстрой скорости обещать не могу, к тому же сеть спорадически пропадает.
Download

Войдите на сайт, чтобы увидеть полную информацию.

Как скачивать  ·   Правила трекера

[Профиль]  [ЛС] 

Lawyer

Стаж: 6 лет 7 месяцев

Сообщений: 7

Russia

post 29-Дек-2012 01:46 (спустя 2 года)

[Цитировать] 

Спаси Христос...
[Профиль]  [ЛС] 

radamir

Стаж: 5 лет 4 месяца

Сообщений: 19

post 14-Июн-2013 17:46 (спустя 5 месяцев 16 дней)

[Цитировать] 

Пусть и в наших храмах так поют...
[Профиль]  [ЛС] 

Misail

Стаж: 6 лет 7 месяцев

Сообщений: 9

post 23-Ноя-2014 11:54 (спустя 1 год 5 месяцев)

[Цитировать] 

Спаси Господь! Хорошая запись.
[Профиль]  [ЛС] 

Webioss

Стаж: 3 года 11 месяцев

Сообщений: 4

Russia

post 08-Мар-2016 14:51 (спустя 1 год 3 месяца)

[Цитировать] 

Раздайте, пожалуйста
Спаси Господи!
[Профиль]  [ЛС] 

Alexander1985

Стаж: 1 год 1 месяц

Сообщений: 7

Russia

post 30-Окт-2016 17:10 (спустя 7 месяцев)

[Цитировать] 

Благодарю!
[Профиль]  [ЛС] 
Показать сообщения:    
Ответить на тему

Текущее время: 15-Дек 00:51

Часовой пояс: GMT + 4



Вы не можете начинать темы
Вы не можете отвечать на сообщения
Вы не можете редактировать свои сообщения
Вы не можете удалять свои сообщения
Вы не можете голосовать в опросах
Вы не можете прикреплять файлы к сообщениям
Вы не можете скачивать файлы