Loading...
Error

Молебен о страждущих недугом пианства и наркомании с акафистом Божией Матери в честь иконы Ея "Неупиваемая чаша" - 2008 год , FLAC (image + .cue), lossless

Ответить на тему
Статистика раздачи
Скачали: [ 4 ]
   
 
Автор Сообщение

andrejpushkaryov

Модератор

Стаж: 7 лет 10 месяцев

Сообщений: 999

Откуда: Ижевск

Russia

post 19-Июл-2010 18:52

[Цитировать] 

Молебен о страждущих недугом пианства и наркомании с акафистом Божией Матери в честь иконы Ея "Неупиваемая чаша"


pic
Страна: Белоруссия
Год выпуска: 2008
Формат: FLAC (image + .cue)
Битрейт аудио: lossless
Продолжительность: 1 час 17 минут
Описание: По благословению Высокопреосвященнёйшего Митрополита Минского и Слуцкого Филарета к первой годовщине восстановления единства Русской Церкви выпускается запись акафиста Пресвятой Богородице в честь иконы Ея «Неупиваемая Чаша» вместе с новым молебном, составленным за границей и записанным в Свято-Елисаветинской обители Белорусского Экзархата. Большинство песнопений этой записи являются гармонизациями или сочинениями Бориса Михайловича Ледковского, известного церковного композитора русского зарубежья. Нынешняя запись - одно из первых приношений единой восстановленной Русской Церкви.
Трэклист:
1. Царю Небесный - 01:15
2. Трисвятое. Псалом 26 - 04:40
3. Мирная ектения - 05:43
4. Тропари на «Бог Господь» - 03:17
5. Запебы и Малая ектения - 03:41
6. Акафист - 36:04
7. Прокимен. Аллилуйя. Глас 4 - 04:03
8. Евангелие от Луки - 04:13
9. Сугубая ектения - 05:15
10. Молитва и отпуск - 04:32
11. «Не имамы иныя помощи». Б. Ледкобский - 04:29
Дополнительная информация: Молебен служит духовник Свято-Елисаветинской обители протоиерей Андрей Лемешонок.
В записи участвуют: диакон Сергий Нежборт, монахиня Иоанна (Орлова),
Минский Свято-Елисаветинский православный хор, регент послушнииа Ирина Денисова
Запись сделана в храме Свято-Елисаветинского монастыря 6 марта 2008 года.
EAC log
Exact Audio Copy V0.99 prebeta 5 from 4. May 2009

Отчёт EAC об извлечении, выполненном 19. июля 2010, 21:52

Прот. Андрей Лемешонок и праздничный хор С-ЕМ / Молебен о страждущих недугом пианства и наркомании с акафистом Божией Матери

Дисковод: HL-DT-STDVDRAM GT30N Adapter: 0 ID: 1

Режим чтения : Достоверность
Использование точного потока : Да
Отключение кэша аудио : Да
Использование указателей C2 : Нет

Коррекция смещения при чтении : 667
Способность читать области Lead-in и Lead-out : Нет
Заполнение пропущенных сэмплов тишиной : Да
Удаление блоков с тишиной в начале и конце : Нет
При вычислениях CRC использовались нулевые сэмплы : Да
Интерфейс : Установленный внешний ASPI-интерфейс

Выходной формат : Пользовательский кодировщик
Выбранный битрейт : 768 kBit/s
Качество : Высокий
Добавление ID3-тэга : Нет
Утилита сжатия : C:\Program Files (x86)\Exact Audio Copy\FLAC\FLAC.EXE
Дополнительные параметры : -6 -V -T "ARTIST=%a" -T "TITLE=%t" -T "ALBUM=%g" -T "DATE=%y" -T "TRACKNUMBER=%n" -T "GENRE=%m" -T "COMMENT=%e" %s -o %d

TOC извлечённого CD

Трек | Старт | Длительность | Начальный сектор | Конечный сектор
---------------------------------------------------------------------
1 | 0:00.00 | 1:15.61 | 0 | 5685
2 | 1:15.61 | 4:40.62 | 5686 | 26747
3 | 5:56.48 | 5:43.28 | 26748 | 52500
4 | 11:40.01 | 3:17.73 | 52501 | 67348
5 | 14:57.74 | 3:41.72 | 67349 | 83995
6 | 18:39.71 | 36:04.65 | 83996 | 246360
7 | 54:44.61 | 4:03.35 | 246361 | 264620
8 | 58:48.21 | 4:13.72 | 264621 | 283667
9 | 63:02.18 | 5:15.60 | 283668 | 307352
10 | 68:18.03 | 4:32.59 | 307353 | 327811
11 | 72:50.62 | 4:29.73 | 327812 | 348059

Характеристики диапазона извлечения и сообщения об ошибках

Выбранный диапазон

Имя файла D:\Молебен с акафистом перед иконой Неупиваемая чаша (lossless)\Прот. Андрей Лемешонок и праздничный хор С-ЕМ - Молебен о страждущих недугом пианства и наркомании с акафистом Божией Матери.wav

Пиковый уровень 96.3 %
Качество диапазона 99.9 %
CRC копии 4C488677
Копирование... OK

Ошибок не произошло

Конец отчёта
Download

Войдите для скачивания торрент-файла

Как скачивать  ·   Правила трекера



Последний раз редактировалось: andrejpushkaryov (2012-03-09 15:51), всего редактировалось 1 раз
[Профиль]  [ЛС] 

Мирослав

Стаж: 8 лет

Сообщений: 123

post 20-Июл-2010 03:26 (спустя 8 часов)

[Цитировать] 

Андрей, а в мп3 есть?
[Профиль]  [ЛС] 

Игорь I

Стаж: 7 лет 9 месяцев

Сообщений: 1538

Russia

post 20-Июл-2010 04:31 (спустя 1 час 4 минуты)

[Цитировать] 

Благодарю!
[Профиль]  [ЛС] 

andrejpushkaryov

Модератор

Стаж: 7 лет 10 месяцев

Сообщений: 999

Откуда: Ижевск

Russia

post 20-Июл-2010 11:35 (спустя 7 часов)

[Цитировать] 

Мирослав писал(а):

Андрей, а в мп3 есть?
Можно и в MP3 , если есть необходимость . Только при сжатии не мешало бы чуть поднять уровень громкости , а с этой задачей на мой взгляд лучше справится Academic Crack давайте его и попросим сделать в MP3 формате.
[Профиль]  [ЛС] 

Владимир Лухов

Стаж: 6 лет 5 месяцев

Сообщений: 105

Откуда: Саратов

Russia

post 19-Ноя-2010 03:42 (спустя 3 месяца 29 дней)

[Цитировать] 

Спасибо большое.

_________________
С уважением. Владимир.
[Профиль]  [ЛС] 

Странник1

Стаж: 7 лет 2 месяца

Сообщений: 2308

Russia

post 23-Дек-2010 15:09 (спустя 1 месяц 4 дня)

[Цитировать] 

Благодарю!
[Профиль]  [ЛС] 

stepan-frunze

Стаж: 7 лет 11 месяцев

Сообщений: 2565

Russia

post 03-Июн-2013 20:15 (спустя 2 года 5 месяцев)

[Цитировать] 

Благодарю!
[Профиль]  [ЛС] 
Показать сообщения:    
Ответить на тему

Текущее время: 25-Фев 03:58

Часовой пояс: GMT + 4



Вы не можете начинать темы
Вы не можете отвечать на сообщения
Вы не можете редактировать свои сообщения
Вы не можете удалять свои сообщения
Вы не можете голосовать в опросах
Вы не можете прикреплять файлы к сообщениям
Вы не можете скачивать файлы