Loading...
Error

(Церковная музыка Греции, Афона и Сербии (lossless)) Хор Монастыря Ватопед - Великая Пятница (2CD) - 2008, APE (image + .cue), lossless

Ответить на тему
Статистика раздачи
   
 
Автор Сообщение

СЕРГУЛЕТ

Стаж: 12 лет

Сообщений: 2637

Откуда: LA ROMANA

Dominicanrep

post 16-Окт-2009 16:56

[Цитировать] 

Хор Монастыря Ватопед - Великая Пятница (2CD)
pic
Страна: Греция
Жанр: Церковная музыка Греции, Афона и Сербии (lossless)
Год выпуска: 2008
Формат: APE (image + .cue)
Битрейт аудио: lossless
Продолжительность: 01:16:17/01:16:28
Наличие сканов: да
Трэклист:
CD1
01. От нощи утреннюет дух мой… Аллилуиа
02. Егда славнии ученицы…
03. Антифон 1
04. Антифон 2
05. Антифон 3
06. Антифон 4
07. Антифон 5
08. Антифон 6
09. Антифон 7
10. Антифон 8
11. Антифон 9
12. Анитфон 10
13. Антифон 11
14. Антифон 12
15. Антифон 13
16. Антифон 14
17. Антифон 15
18. Блаженны

CD2
01. Прокимен
02. Песнь 5-ая канона по катавасии
03. Кондак, икос, синаксарий
04. Песнь 8-ая канона по катавасии
05. Песнь 9-ая канона по катавасии
06. Разбойника благоразумнаго…
07. Всякое дыхание…Хвалите…
08. Два и лукавная сотвори…
Кийждо уд святыя Твоея плоти…
Распеншуся Ти, Христе…
09. Совлекоша с Мене ризы Моя…
10. Плещи Моя дах на раны…
11. Вся тварь изменяшеся страхом…
12. Людие злочестивии и беззаконнии…
Днесь зрящи Тя…
На древе видящи висима…
13. Господи, восходящу Ти на Крест…
14. Уже омакается трость изречения...
15. Искупил ны еси…
16. Ужасеся земля, солнце скрыся…

EAC log
Exact Audio Copy V0.99 prebeta 5 from 4. May 2009

Отчёт EAC об извлечении, выполненном 16. октября 2009, 8:39

Хор монастыря Ватопед / Великая Пятница-1

Дисковод: ASUS BC-1205PT Adapter: 1 ID: 0

Режим чтения : Достоверность
Использование точного потока : Да
Отключение кэша аудио : Да
Использование указателей C2 : Нет

Коррекция смещения при чтении : 667
Способность читать области Lead-in и Lead-out : Нет
Заполнение пропущенных сэмплов тишиной : Да
Удаление блоков с тишиной в начале и конце : Нет
При вычислениях CRC использовались нулевые сэмплы : Да
Интерфейс : Встроенный Win32-интерфейс для Win NT/2000

Выходной формат : Внутренние WAV-операции
Формат сэмплов : 44.100 Гц; 16 бит; стерео

TOC извлечённого CD

Трек | Старт | Длительность | Начальный сектор | Конечный сектор
---------------------------------------------------------------------
1 | 0:00.00 | 1:08.08 | 0 | 5107
2 | 1:08.08 | 2:10.02 | 5108 | 14859
3 | 3:18.10 | 3:26.19 | 14860 | 30328
4 | 6:44.29 | 3:17.73 | 30329 | 45176
5 | 10:02.27 | 6:58.39 | 45177 | 76565
6 | 17:00.66 | 5:53.52 | 76566 | 103092
7 | 22:54.43 | 3:17.36 | 103093 | 117903
8 | 26:12.04 | 5:08.39 | 117904 | 141042
9 | 31:20.43 | 3:53.36 | 141043 | 158553
10 | 35:14.04 | 3:54.33 | 158554 | 176136
11 | 39:08.37 | 3:04.62 | 176137 | 189998
12 | 42:13.24 | 3:23.14 | 189999 | 205237
13 | 45:36.38 | 4:22.01 | 205238 | 224888
14 | 49:58.39 | 8:11.46 | 224889 | 261759
15 | 58:10.10 | 3:42.53 | 261760 | 278462
16 | 61:52.63 | 2:56.59 | 278463 | 291721
17 | 64:49.47 | 6:23.09 | 291722 | 320455
18 | 71:12.56 | 5:02.65 | 320456 | 343170

Характеристики диапазона извлечения и сообщения об ошибках

Выбранный диапазон

Имя файла C:\Хор монастыря Ватопед - Великая Пятница-1.wav

Пиковый уровень 96.9 %
Качество диапазона 100.0 %
CRC копии 7CD3A64B
Копирование... OK

Ошибок не произошло

CD2.
Exact Audio Copy V0.99 prebeta 5 from 4. May 2009

Отчёт EAC об извлечении, выполненном 16. октября 2009, 8:53

Хор монастыря Ватопед / Великая Пятница-2

Дисковод: ASUS BC-1205PT Adapter: 1 ID: 0

Режим чтения : Достоверность
Использование точного потока : Да
Отключение кэша аудио : Да
Использование указателей C2 : Нет

Коррекция смещения при чтении : 667
Способность читать области Lead-in и Lead-out : Нет
Заполнение пропущенных сэмплов тишиной : Да
Удаление блоков с тишиной в начале и конце : Нет
При вычислениях CRC использовались нулевые сэмплы : Да
Интерфейс : Встроенный Win32-интерфейс для Win NT/2000

Выходной формат : Внутренние WAV-операции
Формат сэмплов : 44.100 Гц; 16 бит; стерео

TOC извлечённого CD

Трек | Старт | Длительность | Начальный сектор | Конечный сектор
---------------------------------------------------------------------
1 | 0:00.00 | 1:06.70 | 0 | 5019
2 | 1:06.70 | 3:45.29 | 5020 | 21923
3 | 4:52.24 | 2:46.35 | 21924 | 34408
4 | 7:38.59 | 5:37.43 | 34409 | 59726
5 | 13:16.27 | 3:42.67 | 59727 | 76443
6 | 16:59.19 | 0:59.48 | 76444 | 80916
7 | 17:58.67 | 4:04.16 | 80917 | 99232
8 | 22:03.08 | 5:38.21 | 99233 | 124603
9 | 27:41.29 | 10:14.72 | 124604 | 170725
10 | 37:56.26 | 2:39.55 | 170726 | 182705
11 | 40:36.06 | 1:44.64 | 182706 | 190569
12 | 42:20.70 | 7:40.63 | 190570 | 225132
13 | 50:01.58 | 3:21.62 | 225133 | 240269
14 | 53:23.45 | 11:01.59 | 240270 | 289903
15 | 64:25.29 | 0:48.33 | 289904 | 293536
16 | 65:13.62 | 11:13.00 | 293537 | 344011

Характеристики диапазона извлечения и сообщения об ошибках

Выбранный диапазон

Имя файла C:\Хор монастыря Ватопед - Великая Пятница-2.wav

Пиковый уровень 97.0 %
Качество диапазона 99.9 %
CRC копии CEF6443B
Копирование... OK

Ошибок не произошло
Конец отчёта

Обложки и содержание
pic pic pic

Дополнительная информация
Поёт братский хор монастыря Ватопед.

Download

Войдите на сайт, чтобы увидеть полную информацию.

Как скачивать  ·   Правила трекера

[Профиль]  [ЛС] 

eiryk

Стаж: 10 лет

Сообщений: 2

post 22-Апр-2011 16:25 (спустя 1 год 6 месяцев)

[Цитировать] 

Спасибо, очень много. Я искал долго для этого компакт-диска. Я очень рад, что наконец я нашел его здесь.
[Профиль]  [ЛС] 

vika010288

Стаж: 12 лет

Сообщений: 456

Georgia

post 14-Июл-2011 22:45 (спустя 2 месяца 22 дня)

[Цитировать] 

Спасибо!
[Профиль]  [ЛС] 

stepan-frunze

Стаж: 12 лет

Сообщений: 2563

Russia

post 24-Май-2013 01:01 (спустя 1 год 10 месяцев)

[Цитировать] 

Спасибо!
[Профиль]  [ЛС] 
Показать сообщения:    
Ответить на тему

Текущее время: 24-Июл 06:47

Часовой пояс: GMT + 4



Вы не можете начинать темы
Вы не можете отвечать на сообщения
Вы не можете редактировать свои сообщения
Вы не можете удалять свои сообщения
Вы не можете голосовать в опросах
Вы не можете прикреплять файлы к сообщениям
Вы не можете скачивать файлы