Loading...
Error

(Колокольные звоны.) "Звоны Свято-Успенской Киево-Печерской Лавры". - 2008, APE (image + .cue), lossless

Ответить на тему
Статистика раздачи
Качают: [ 1 ]
Скачали: [ 7 ]
   
 
Автор Сообщение

СЕРГУЛЕТ

Стаж: 8 лет 3 месяца

Сообщений: 2639

Откуда: LA ROMANA

Dominicanrep

post 27-Дек-2009 12:46

[Цитировать] 

"Звоны Свято-Успенской Киево-Печерской Лавры".

pic
Страна: Украина.
Жанр: Колокольные звоны.
Год выпуска: 2008
Формат: APE (image + .cue)
Битрейт аудио: lossless
Продолжительность: 01:17:24
Обложки+Содержание
picpicpicpicpic
EAC log
Exact Audio Copy V0.99 prebeta 5 from 4. May 2009

Отчёт EAC об извлечении, выполненном 25. декабря 2009, 7:27

- / Звоны КПЛ

Дисковод: ASUS BC-1205PT Adapter: 1 ID: 0

Режим чтения : Достоверность
Использование точного потока : Да
Отключение кэша аудио : Да
Использование указателей C2 : Нет

Коррекция смещения при чтении : 667
Способность читать области Lead-in и Lead-out : Нет
Заполнение пропущенных сэмплов тишиной : Да
Удаление блоков с тишиной в начале и конце : Нет
При вычислениях CRC использовались нулевые сэмплы : Да
Интерфейс : Встроенный Win32-интерфейс для Win NT/2000

Выходной формат : Внутренние WAV-операции
Формат сэмплов : 44.100 Гц; 16 бит; стерео

TOC извлечённого CD

Трек | Старт | Длительность | Начальный сектор | Конечный сектор
---------------------------------------------------------------------
1 | 0:00.00 | 0:35.22 | 0 | 2646
2 | 0:35.22 | 0:51.56 | 2647 | 6527
3 | 1:27.03 | 11:21.48 | 6528 | 57650
4 | 12:48.51 | 8:08.01 | 57651 | 94251
5 | 20:56.52 | 7:13.73 | 94252 | 126799
6 | 28:10.50 | 6:58.52 | 126800 | 158201
7 | 35:09.27 | 6:21.10 | 158202 | 186786
8 | 41:30.37 | 1:02.52 | 186787 | 191488
9 | 42:33.14 | 3:59.63 | 191489 | 209476
10 | 46:33.02 | 15:56.55 | 209477 | 281231
11 | 62:29.57 | 3:46.05 | 281232 | 298186
12 | 66:15.62 | 3:52.31 | 298187 | 315617
13 | 70:08.18 | 6:21.14 | 315618 | 344206
14 | 76:29.32 | 0:54.49 | 344207 | 348305

Характеристики диапазона извлечения и сообщения об ошибках

Выбранный диапазон

Имя файла C:\Звоны КПЛ.wav

Пиковый уровень 95.5 %
Качество диапазона 100.0 %
CRC копии CEB4E0B7
Копирование... OK

Ошибок не произошло

AccurateRip: сводка
Трек 1 нет в базе данных
Трек 2 нет в базе данных
Трек 3 нет в базе данных
Трек 4 нет в базе данных
Трек 5 нет в базе данных
Трек 6 нет в базе данных
Трек 7 нет в базе данных
Трек 8 нет в базе данных
Трек 9 нет в базе данных
Трек 10 нет в базе данных
Трек 11 нет в базе данных
Трек 12 нет в базе данных
Трек 13 нет в базе данных
Трек 14 нет в базе данных
Ни одного трека нет в базе AccurateRip

Конец отчёта

------------------------------------------------------------

Exact Audio Copy V0.99 prebeta 5 from 4. May 2009

Отчёт EAC об извлечении, выполненном 25. декабря 2009, 7:27

- / Звоны КПЛ

Дисковод: ASUS BC-1205PT Adapter: 1 ID: 0

Режим чтения : Достоверность
Использование точного потока : Да
Отключение кэша аудио : Да
Использование указателей C2 : Нет

Коррекция смещения при чтении : 667
Способность читать области Lead-in и Lead-out : Нет
Заполнение пропущенных сэмплов тишиной : Да
Удаление блоков с тишиной в начале и конце : Нет
При вычислениях CRC использовались нулевые сэмплы : Да
Интерфейс : Встроенный Win32-интерфейс для Win NT/2000

Выходной формат : Внутренние WAV-операции
Формат сэмплов : 44.100 Гц; 16 бит; стерео

TOC извлечённого CD

Трек | Старт | Длительность | Начальный сектор | Конечный сектор
---------------------------------------------------------------------
1 | 0:00.00 | 0:35.22 | 0 | 2646
2 | 0:35.22 | 0:51.56 | 2647 | 6527
3 | 1:27.03 | 11:21.48 | 6528 | 57650
4 | 12:48.51 | 8:08.01 | 57651 | 94251
5 | 20:56.52 | 7:13.73 | 94252 | 126799
6 | 28:10.50 | 6:58.52 | 126800 | 158201
7 | 35:09.27 | 6:21.10 | 158202 | 186786
8 | 41:30.37 | 1:02.52 | 186787 | 191488
9 | 42:33.14 | 3:59.63 | 191489 | 209476
10 | 46:33.02 | 15:56.55 | 209477 | 281231
11 | 62:29.57 | 3:46.05 | 281232 | 298186
12 | 66:15.62 | 3:52.31 | 298187 | 315617
13 | 70:08.18 | 6:21.14 | 315618 | 344206
14 | 76:29.32 | 0:54.49 | 344207 | 348305

Характеристики диапазона извлечения и сообщения об ошибках

Выбранный диапазон

Имя файла C:\Звоны КПЛ.wav

Пиковый уровень 95.5 %
Качество диапазона 100.0 %
CRC копии CEB4E0B7
Копирование... OK

Ошибок не произошло

AccurateRip: сводка
Трек 1 нет в базе данных
Трек 2 нет в базе данных
Трек 3 нет в базе данных
Трек 4 нет в базе данных
Трек 5 нет в базе данных
Трек 6 нет в базе данных
Трек 7 нет в базе данных
Трек 8 нет в базе данных
Трек 9 нет в базе данных
Трек 10 нет в базе данных
Трек 11 нет в базе данных
Трек 12 нет в базе данных
Трек 13 нет в базе данных
Трек 14 нет в базе данных
Ни одного трека нет в базе AccurateRip

Конец отчёта
Download

Войдите для скачивания торрент-файла

Как скачивать  ·   Правила трекера

[Профиль]  [ЛС] 

Владимир Лухов

Стаж: 6 лет 8 месяцев

Сообщений: 108

Откуда: Саратов

Russia

post 11-Ноя-2010 02:45 (спустя 10 месяцев)

[Цитировать] 

Благодарю.

_________________
С уважением. Владимир.
[Профиль]  [ЛС] 

+Сергей+

Стаж: 6 лет 5 месяцев

Сообщений: 225

Откуда: Москва

Russia

post 04-Дек-2010 19:34 (спустя 23 дня)

[Цитировать] 

Спасибо.
[Профиль]  [ЛС] 

dim-perm

Стаж: 4 года 4 месяца

Сообщений: 4

Russia

post 15-Апр-2013 20:03 (спустя 2 года 4 месяца)

[Цитировать] 

Спаси Христос!
[Профиль]  [ЛС] 

Иванна7.7.7.

Стаж: 2 года 8 месяцев

Сообщений: 32

Ukraine

post 04-Сен-2014 10:22 (спустя 1 год 4 месяца)

[Цитировать] 

Благодарю!
[Профиль]  [ЛС] 
Показать сообщения:    
Ответить на тему

Текущее время: 28-Май 19:01

Часовой пояс: GMT + 4



Вы не можете начинать темы
Вы не можете отвечать на сообщения
Вы не можете редактировать свои сообщения
Вы не можете удалять свои сообщения
Вы не можете голосовать в опросах
Вы не можете прикреплять файлы к сообщениям
Вы не можете скачивать файлы