Loading...
Error

Небо на земле. Литургия свт. Иоанна Златоуста (2005) lossless FLAC (image+.cue) 2 CD

Ответить на тему
Статистика раздачи
   
 
Автор Сообщение

Academic Crack

Администратор

Стаж: 8 лет 9 месяцев

Сообщений: 2080

Russia

post 25-Апр-2009 19:07

[Цитировать] 

Небо на земле. Божественная Литургия Святителя Иоанна Златоуста (2005) lossless FLAC (image+.cue) 2 CD
pic
Год выпуска: 2005
Страна: Республика Беларусь
Исполнитель: Хор сестер Свято-Елисаветинского монастыря, Республика Беларусь, г. Минск
Издатель: Свято-Елисаветинский монастырь, Республика Беларусь, г. Минск
Тип диска: Заводской (штамповка, не самопалка)
Аудио кодек: FLAC
Тип рипа: image+.cue
Битрейт аудио: lossless
Продолжительность: 57:36 (CD1) + 40:44 (CD2)

Пение довольно аскетичное. Поэтому во избежание недоразумений прослушайте сэмпл перед скачиванием.
Прослушать сэмпл (дождитесь загрузки flash-проигрывателя и нажмите на воспроизведение)
Если ссылка на сэмпл умрет, то можно скачать любой трек из аналогичной этой раздаче в mp3

Внимание! Сканы дисков, буклета в разрешении 600 dpi, скрины Tau Analyzer (главное окно + спектрограммы треков + АЧХ треков), а также log-файл EAC приложены к раздаче. Кому не нужны обложки или скрины Tau Analyzer, снимайте галки с соответствующих папок. Сканов обложек нет. Они полностью идентичны 1-й и последней странице буклета.

О том, как воспроизводить lossless-форматы на компьютере, читайте здесь.
Треклист
CD1
01. Звон - The Chimes 01:59
02. Начало Литургии - The begging of the Liturgy. 00:26
03. Мирная ектения - The Great Ektenia 03:28
04. Первый антифон - First Antiphon 03:12
05. Малая ектения - The Litlle Litany 01:16
06. Второй антифон - Second Antiphon 01:20
07. Единородный Сыне - The Only-Begotten Son 01:29
08. Малая ектения - The Little Litany 01:16
09. Блаженны - Blessed are 04:36
10. Приидите, поклонимся... - Come, let us worship 01:00
11. Тропари - Tioparione 01:35
12. Господи, спаси благочестивыя - Lord, save the pious 00:53
13. Трисвятое - The Trice-Holy 02:12
14. Прокимен, глас 8 - The Prokcimenon. Tone 01:10
15. Апостол - The Epistle Reading 01:33
16. Опевы Евангелия - Chantig to the Gospel 01:29
17. Евангелие - The Gospel reading 04:07
18. Сугубая ектения - The litany of Fervent Supplication 05:42
19. Заупокойная астения - Lithany 02:45
20. Ектении об оглашенных - The Litany for the Catechumens 03:42
21. Херувимская песнь - The Cherubic Hymn 08:26
22. Просительная астения - The Litany of Supplication 03:48
CD2
01. Отца и Сына... - Father, Son and Holy Spirit 00:43
02. Верую - The Creed 02:18
03. Милость мира - A mercy of peace 07:30
04. Достойно есть - It is meet and right 03:04
05. Просительная ектения - The Litany before Lord's Prayer 03:22
06. Отче наш - The Lord's Prayer 02:15
07. Един Свят - The Only Holy 00:37
08. Причастен - The Communion Hymn 00:26
09. Со страхом Божиим - With the Fear of God 01:29
10. Тело Христово. Аллилуия - Receive the Body of Christ 01:04
11. Видехом Свет Истинный - We have seen the true Light 00:54
12. Да исполнятся уста наша - Let our mouth be filled with Thy praise 01:17
13. Малая ектения - The Little Litany 01:10
14. Окончание Литургии - The end of the Liturgy 03:50
15. Проповедь - The Sermon 07:54
16. Звон - The Chimes 02:42
Лог EAC
CD1
Exact Audio Copy V0.99 prebeta 4 from 23. January 2008

Отчёт EAC об извлечении, выполненном 24. апреля 2009, 15:15

Сестры Свято-Елисаветинского монастыря / Литургия CD1

Дисковод: ASUS DRW-1814BL Adapter: 2 ID: 1

Режим чтения : Достоверность
Использование точного потока : Да
Отключение кэша аудио : Да
Использование указателей C2 : Нет

Коррекция смещения при чтении : 6
Способность читать области Lead-in и Lead-out : Нет
Заполнение пропущенных сэмплов тишиной : Да
Удаление блоков с тишиной в начале и конце : Нет
При вычислениях CRC использовались нулевые сэмплы : Да
Интерфейс : Установленный внешний ASPI-интерфейс

Выходной формат : Внутренние WAV-операции
Формат сэмплов : 44.100 Гц; 16 бит; стерео

TOC извлечённого CD

Трек | Старт | Длительность | Начальный сектор | Конечный сектор
---------------------------------------------------------------------
1 | 0:00.00 | 1:59.45 | 0 | 8969
2 | 1:59.45 | 0:26.12 | 8970 | 10931
3 | 2:25.57 | 3:28.30 | 10932 | 26561
4 | 5:54.12 | 3:12.37 | 26562 | 40998
5 | 9:06.49 | 1:16.48 | 40999 | 46746
6 | 10:23.22 | 1:20.49 | 46747 | 52795
7 | 11:43.71 | 1:29.45 | 52796 | 59515
8 | 13:13.41 | 1:16.43 | 59516 | 65258
9 | 14:30.09 | 4:36.69 | 65259 | 86027
10 | 19:07.03 | 1:00.61 | 86028 | 90588
11 | 20:07.64 | 1:35.15 | 90589 | 97728
12 | 21:43.04 | 0:53.72 | 97729 | 101775
13 | 22:37.01 | 2:12.31 | 101776 | 111706
14 | 24:49.32 | 1:10.31 | 111707 | 116987
15 | 25:59.63 | 1:33.34 | 116988 | 123996
16 | 27:33.22 | 1:29.61 | 123997 | 130732
17 | 29:03.08 | 4:07.51 | 130733 | 149308
18 | 33:10.59 | 5:42.10 | 149309 | 174968
19 | 38:52.69 | 2:45.15 | 174969 | 187358
20 | 41:38.09 | 3:42.63 | 187359 | 204071
21 | 45:20.72 | 8:26.14 | 204072 | 242035
22 | 53:47.11 | 3:48.72 | 242036 | 259207

Характеристики диапазона извлечения и сообщения об ошибках

Выбранный диапазон

Имя файла F:\Religion\Сестры Свято-Елисаветинского монастыря - Литургия\CD1\lossless\CDImage.wav

Пиковый уровень 98.6 %
Качество диапазона 99.9 %
CRC теста F990604D
CRC копии F990604D
Копирование... OK

Ошибок не произошло

AccurateRip: сводка
Трек 1 нет в базе данных
Трек 2 нет в базе данных
Трек 3 нет в базе данных
Трек 4 нет в базе данных
Трек 5 нет в базе данных
Трек 6 нет в базе данных
Трек 7 нет в базе данных
Трек 8 нет в базе данных
Трек 9 нет в базе данных
Трек 10 нет в базе данных
Трек 11 нет в базе данных
Трек 12 нет в базе данных
Трек 13 точное извлечение (доверие 1) [CD4BFB31]
Трек 14 нет в базе данных
Трек 15 нет в базе данных
Трек 16 нет в базе данных
Трек 17 нет в базе данных
Трек 18 нет в базе данных
Трек 19 нет в базе данных
Трек 20 нет в базе данных
Трек 21 нет в базе данных
Трек 22 нет в базе данных
1 трек(и) скопированы точно
21 трек(и) не содержатся в базе AccurateRip

Некоторые треки не прошли проверку на точность

Конец отчёта
Кого здесь удивит один трек, прошедший подлинность AccurateRip, так это тот самый сэмпл, который я делал еще до выкладки этой раздачи, когда предлагал ее в соответствующем форуме.
CD2
Exact Audio Copy V0.99 prebeta 4 from 23. January 2008

Отчёт EAC об извлечении, выполненном 24. апреля 2009, 17:29

Сестры Свято-Елисаветинского монастыря / Небо на земле CD2

Дисковод: ASUS DRW-1814BL Adapter: 2 ID: 1

Режим чтения : Достоверность
Использование точного потока : Да
Отключение кэша аудио : Да
Использование указателей C2 : Нет

Коррекция смещения при чтении : 6
Способность читать области Lead-in и Lead-out : Нет
Заполнение пропущенных сэмплов тишиной : Да
Удаление блоков с тишиной в начале и конце : Нет
При вычислениях CRC использовались нулевые сэмплы : Да
Интерфейс : Установленный внешний ASPI-интерфейс

Выходной формат : Внутренние WAV-операции
Формат сэмплов : 44.100 Гц; 16 бит; стерео

TOC извлечённого CD

Трек | Старт | Длительность | Начальный сектор | Конечный сектор
---------------------------------------------------------------------
1 | 0:00.00 | 0:43.65 | 0 | 3289
2 | 0:43.65 | 2:18.13 | 3290 | 13652
3 | 3:02.03 | 7:30.60 | 13653 | 47462
4 | 10:32.63 | 3:04.66 | 47463 | 61328
5 | 13:37.54 | 3:22.39 | 61329 | 76517
6 | 17:00.18 | 2:15.66 | 76518 | 86708
7 | 19:16.09 | 0:37.51 | 86709 | 89534
8 | 19:53.60 | 0:26.48 | 89535 | 91532
9 | 20:20.33 | 1:29.48 | 91533 | 98255
10 | 21:50.06 | 1:04.21 | 98256 | 103076
11 | 22:54.27 | 0:54.15 | 103077 | 107141
12 | 23:48.42 | 1:17.48 | 107142 | 112964
13 | 25:06.15 | 1:10.21 | 112965 | 118235
14 | 26:16.36 | 3:50.63 | 118236 | 135548
15 | 30:07.24 | 7:54.04 | 135549 | 171102
16 | 38:01.28 | 2:42.66 | 171103 | 183318

Характеристики диапазона извлечения и сообщения об ошибках

Выбранный диапазон

Имя файла F:\Religion\Сестры Свято-Елисаветинского монастыря - Литургия\CD2\lossless\CDImage.wav

Пиковый уровень 98.1 %
Качество диапазона 100.0 %
CRC теста 367F7AD1
CRC копии 367F7AD1
Копирование... OK

Ошибок не произошло

AccurateRip: сводка
Трек 1 нет в базе данных
Трек 2 нет в базе данных
Трек 3 нет в базе данных
Трек 4 нет в базе данных
Трек 5 нет в базе данных
Трек 6 нет в базе данных
Трек 7 нет в базе данных
Трек 8 нет в базе данных
Трек 9 нет в базе данных
Трек 10 нет в базе данных
Трек 11 нет в базе данных
Трек 12 нет в базе данных
Трек 13 нет в базе данных
Трек 14 нет в базе данных
Трек 15 нет в базе данных
Трек 16 нет в базе данных
Ни одного трека нет в базе AccurateRip

Конец отчёта
Скрины Tau Analyzer + спектры и АЧХ спорных треков
CD1
pic
pic
pic
pic
pic
CD2
pic
pic
pic
pic
pic
Сканы обложек и дисков (сканы буклета в раздаче)
picpicpicpic
Download

Войдите на сайт, чтобы увидеть полную информацию.

Как скачивать  ·   Правила трекера


_________________
pic
pic 100 Мбит/с, pic 100 Мбит/с.
Исправили раздачу? Пишите в личку со ссылкой на раздачу.


Последний раз редактировалось: Academic Crack (2011-03-08 03:28), всего редактировалось 2 раз(а)
[Профиль]  [ЛС] 

Slovich

Стаж: 8 лет

Сообщений: 18

Russia

post 10-Окт-2009 22:22 (спустя 5 месяцев 15 дней)

[Цитировать] 

сэмпл, к сожалению, умер... Sad Но все-равно, за раздачу - СПАСИБО! Smile
[Профиль]  [ЛС] 

CEPBEP4

Стаж: 6 лет 6 месяцев

Сообщений: 133

Откуда: ОРЕНБУРГ

Russia

post 06-Фев-2015 13:55 (спустя 5 лет 3 месяца)

[Цитировать] 

Благодарю! Отличный диск, но нашел ошибки в тегах, указал жирным шрифтом:

18. Сугубая ектения - The litany of Fervent Supplication 05:42
19. Заупокойная астения - Lithany 02:45
20. Ектении об оглашенных - The Litany for the Catechumens 03:42
21. Херувимская песнь - The Cherubic Hymn 08:26
22. Просительная астения - The Litany of Supplication 03:48

_________________
pic
pic 100 Мбит/с pic 100 Мбит/с pic
[Профиль]  [ЛС] 

neosacred

Стаж: 2 года 6 месяцев

Сообщений: 4

post 04-Окт-2015 12:44 (спустя 7 месяцев)

[Цитировать] 

Благодарю...
[Профиль]  [ЛС] 
Показать сообщения:    
Ответить на тему

Текущее время: 22-Сен 06:32

Часовой пояс: GMT + 4



Вы не можете начинать темы
Вы не можете отвечать на сообщения
Вы не можете редактировать свои сообщения
Вы не можете удалять свои сообщения
Вы не можете голосовать в опросах
Вы не можете прикреплять файлы к сообщениям
Вы не можете скачивать файлы