Loading...
Error

(Акафисты, каноны, молебны (lossless)) "Молебен с акафистом Святому Благоверному Великому князю Александру Невскому в схиме Алексию". - 2010, APE (image + .cue), lossless

Ответить на тему
Статистика раздачи
   
 
Автор Сообщение

СЕРГУЛЕТ

Стаж: 8 лет 8 месяцев

Сообщений: 2640

Откуда: LA ROMANA

Dominicanrep

post 12-Янв-2012 21:48

[Цитировать] 

"Молебен с акафистом Святому Благоверному Великому князю Александру Невскому в схиме Алексию".

pic
Страна: Россия.Православная студия "Горизонт".
Жанр: Акафисты, каноны, молебны (lossless)
Год выпуска: 2010
Формат: APE (image + .cue)
Битрейт аудио: lossless
Продолжительность: 01:17:25
Содержание:
Благовест, начало молебна
Царю Небесный (Шевцов)
Бог Господь, гп.4
Тропарь св. Александру Невскому
(напев Троице-Сергиевой Лавры)
Запевы
Акафист. Кондак, Икос 1 (чтец - Ян Осин)
Кондак, Икос 2
Кондак, Икос 3
Кондак, Икос 4
Кондак, Икос 5
Кондак, Икос 6
Кондак, Икос 7
Кондак, Икос 8
Кондак, Икос 9
Кондак, Икос 10
Кондак, Икос 11
Кондак, Икос 12
Кондак 13
Прокимен, Всякое дыхание, Евангелие
Запевы
Сугубая ектения (Чесноков)
Молитва св. А. Невскому
Величание св. А.Невскому (Додонов)
солист - Ян Осин
Отпуст
Стихира на литии (Карпов)
Утверди, Боже! (Косолапое) солист - Ян Осин
Трезвон
Обложки+Содержание
picpic
EAC log
Exact Audio Copy V1.0 beta 2 from 29. April 2011

Отчёт EAC об извлечении, выполненном 31. декабря 2011, 18:48

Псков / Акафист Александру Невскому

Дисковод: ASUS DRW-2014L1T Adapter: 2 ID: 1

Режим чтения : Достоверность
Использование точного потока : Да
Отключение кэша аудио : Да
Использование указателей C2 : Нет

Коррекция смещения при чтении : 6
Способность читать области Lead-in и Lead-out : Нет
Заполнение пропущенных сэмплов тишиной : Да
Удаление блоков с тишиной в начале и конце : Нет
При вычислениях CRC использовались нулевые сэмплы : Да
Интерфейс : Встроенный Win32-интерфейс для Win NT/2000

Выходной формат : Внутренние WAV-операции
Формат сэмплов : 44.100 Гц; 16 бит; стерео

TOC извлечённого CD

Трек | Старт | Длительность | Начальный сектор | Конечный сектор
---------------------------------------------------------------------
1 | 0:00.00 | 0:51.52 | 0 | 3876
2 | 0:51.52 | 1:47.42 | 3877 | 11943
3 | 2:39.19 | 2:37.39 | 11944 | 23757
4 | 5:16.58 | 1:47.38 | 23758 | 31820
5 | 7:04.21 | 0:59.56 | 31821 | 36301
6 | 8:04.02 | 4:26.46 | 36302 | 56297
7 | 12:30.48 | 3:44.23 | 56298 | 73120
8 | 16:14.71 | 3:39.08 | 73121 | 89553
9 | 19:54.04 | 3:43.29 | 89554 | 106307
10 | 23:37.33 | 3:37.03 | 106308 | 122585
11 | 27:14.36 | 3:41.21 | 122586 | 139181
12 | 30:55.57 | 4:01.62 | 139182 | 157318
13 | 34:57.44 | 3:37.18 | 157319 | 173611
14 | 38:34.62 | 3:40.72 | 173612 | 190183
15 | 42:15.59 | 3:50.64 | 190184 | 207497
16 | 46:06.48 | 3:43.19 | 207498 | 224241
17 | 49:49.67 | 4:03.13 | 224242 | 242479
18 | 53:53.05 | 1:32.55 | 242480 | 249434
19 | 55:25.60 | 5:29.65 | 249435 | 274174
20 | 60:55.50 | 0:57.56 | 274175 | 278505
21 | 61:53.31 | 2:34.37 | 278506 | 290092
22 | 64:27.68 | 3:49.08 | 290093 | 307275
23 | 68:17.01 | 2:31.62 | 307276 | 318662
24 | 70:48.63 | 1:44.58 | 318663 | 326520
25 | 72:33.46 | 2:14.61 | 326521 | 336631
26 | 74:48.32 | 1:38.35 | 336632 | 344016
27 | 76:26.67 | 0:32.25 | 344017 | 346441

Характеристики диапазона извлечения и сообщения об ошибках

Выбранный диапазон

Имя файла C:\Псков - Акафист Александру Невскому.wav

Пиковый уровень 93.7 %
Скорость извлечения 6.7 X
Качество диапазона 99.9 %
CRC копии 182A690C
Копирование... OK

Ошибок не произошло

Конец отчёта

==== Контрольная сумма отчёта 4E2A78F6E439F94F7CB8A8AC386BD23924AE5C3403019598C63DB9FC80B9E301 ====
Download

Войдите на сайт, чтобы увидеть полную информацию.

Как скачивать  ·   Правила трекера

[Профиль]  [ЛС] 

Странник1

Стаж: 7 лет 10 месяцев

Сообщений: 2308

Russia

post 13-Янв-2012 16:13 (спустя 18 часов)

[Цитировать] 

Спасибо
[Профиль]  [ЛС] 

Alex335

Стаж: 4 года 9 месяцев

Сообщений: 5

Ukraine

post 06-Янв-2013 01:10 (спустя 11 месяцев)

[Цитировать] 

Спасибо!
Интересный Акафист! Впервые слышу, что Кондак 13 читается только раз, а Икос 1 и Кондак 1 не читается после Кондак 13!
Качество непонятное!
скрытый текст
-----------------------

DON'T MODIFY THIS FILE

-----------------------

PERFORMER: auCDtect Task Manager, ver. 1.5.1RC6 build 1.5.1.7
Copyright (c) 2008-2010 y-soft. All rights reserved
http://y-soft.org

ANALYZER: auCDtect: CD records authenticity detector, version 0.8.2
Copyright (c) 2004 Oleg Berngardt. All rights reserved.
Copyright (c) 2004 Alexander Djourik. All rights reserved.

FILE: Псков - Акафист Александру Невскому.ape
Size: 313673568 Hash: 4BFE83DDA91B9EF3ADB7B4959F6A172F Accuracy: -m0
Conclusion: CDDA 43%
Signature: 5B7ED2B27F4F3A41DB5F8E4D50294578D506F5A5

------------------------------------------------------------------------------------------------------------
fooCDtect - foobar2000 + auCDtect, baralgin.

auCDtect: CD records authenticity detector, version 0.8.2
Copyright (c) 2004 Oleg Berngardt. All rights reserved.
Copyright (c) 2004 Alexander Djourik. All rights reserved.

mode: 0

===========================================
Track: 001. Благовест, начало молебна
Quality: CDDA 100%
===========================================
Track: 002. Царю Небесный (Шевцов)
Quality: MPEG 80%
===========================================
Track: 003. Бог Господь, гп.4
Quality: MPEG 80%
===========================================
Track: 004. Тропарь св. Александру Невскому (напев Троице-Сергиевой Лавры)
Quality: MPEG 90%
===========================================
Track: 005. Запевы
Quality: MPEG 90%
===========================================
Track: 006. Акафист. Кондак, Икос 1 (чтец - Ян Осин)
Quality: MPEG 89%
===========================================
Track: 007. Кондак, Икос 2
Quality: CDDA 54%
===========================================
Track: 008. Кондак, Икос 3
Quality: CDDA 43%
===========================================
Track: 009. Кондак, Икос 4
Quality: CDDA 76%
===========================================
Track: 010. Кондак, Икос 5
Quality: CDDA 54%
===========================================
Track: 011. Кондак, Икос 6
Quality: CDDA 49%
===========================================
Track: 012. Кондак, Икос 7
Quality: MPEG 80%
===========================================
Track: 013. Кондак, Икос 8
Quality: CDDA 62%
===========================================
Track: 014. Кондак, Икос 9
Quality: CDDA 54%
===========================================
Track: 015. Кондак, Икос 10
Quality: CDDA 54%
===========================================
Track: 016. Кондак, Икос 11
Quality: CDDA 43%
===========================================
Track: 017. Кондак, Икос 12
Quality: CDDA 43%
===========================================
Track: 018. Кондак 13
Quality: MPEG 90%
===========================================
Track: 019. Прокимен, Всякое дыхание, Евангелие
Quality: MPEG 89%
===========================================
Track: 020. Запевы
Quality: MPEG 90%
===========================================
Track: 021. Сугубая ектения (Чесноков)
Quality: CDDA 43%
===========================================
Track: 022. Молитва св. А. Невскому
Quality: CDDA 76%
===========================================
Track: 023. Величание св. А.Невскому (Додонов) солист - Ян Осин
Quality: CDDA 43%
===========================================
Track: 024. Отпуст
Quality: MPEG 89%
===========================================
Track: 025. Стихира на литии (Карпов)
Quality: MPEG 93%
===========================================
Track: 026. Утверди, Боже! (Косолапое) солист - Ян Осин
Quality: CDDA 49%
===========================================
Track: 027. Трезвон
Quality: CDDA 100%
===========================================
[Профиль]  [ЛС] 
Показать сообщения:    
Ответить на тему

Текущее время: 20-Окт 07:05

Часовой пояс: GMT + 4



Вы не можете начинать темы
Вы не можете отвечать на сообщения
Вы не можете редактировать свои сообщения
Вы не можете удалять свои сообщения
Вы не можете голосовать в опросах
Вы не можете прикреплять файлы к сообщениям
Вы не можете скачивать файлы