Loading...
Error

(Церковная музыка Греции, Афона и Сербии (lossless).) Вокальные дуэты "Пирг" & "Духовная Лира" (Сербия). Концерт в Париже. - 2010, APE (image + .cue), lossless

Ответить на тему
Статистика раздачи
Скачали: [ 5 ]
   
 
Автор Сообщение

СЕРГУЛЕТ

Стаж: 8 лет 3 месяца

Сообщений: 2639

Откуда: LA ROMANA

Dominicanrep

post 27-Дек-2012 16:29

[Цитировать] 

Вокальные дуэты "Пирг" & "Духовная Лира" (Сербия). Концерт в Париже.

pic
Страна: Сербия.
Жанр: Церковная музыка Греции, Афона и Сербии (lossless).
Год выпуска: 2010
Формат: APE (image + .cue)
Битрейт аудио: lossless
Продолжительность: 00:52:21
Содержание
pic
Дополнительная информация:
EAC log
Exact Audio Copy V1.0 beta 2 from 29. April 2011

Отчёт EAC об извлечении, выполненном 27. декабря 2012, 8:46

Пирг & Духовна Лира / Концерт в Париже

Дисковод: ASUS DRW-2014L1T Adapter: 2 ID: 1

Режим чтения : Достоверность
Использование точного потока : Да
Отключение кэша аудио : Да
Использование указателей C2 : Нет

Коррекция смещения при чтении : 6
Способность читать области Lead-in и Lead-out : Нет
Заполнение пропущенных сэмплов тишиной : Да
Удаление блоков с тишиной в начале и конце : Нет
При вычислениях CRC использовались нулевые сэмплы : Да
Интерфейс : Встроенный Win32-интерфейс для Win NT/2000

Выходной формат : Внутренние WAV-операции
Формат сэмплов : 44.100 Гц; 16 бит; стерео

TOC извлечённого CD

Трек | Старт | Длительность | Начальный сектор | Конечный сектор
---------------------------------------------------------------------
1 | 0:00.00 | 2:35.47 | 0 | 11671
2 | 2:35.47 | 4:39.69 | 11672 | 32665
3 | 7:15.41 | 2:17.64 | 32666 | 43004
4 | 9:33.30 | 3:49.22 | 43005 | 60201
5 | 13:22.52 | 2:52.45 | 60202 | 73146
6 | 16:15.22 | 4:12.48 | 73147 | 92094
7 | 20:27.70 | 4:26.35 | 92095 | 112079
8 | 24:54.30 | 2:53.32 | 112080 | 125086
9 | 27:47.62 | 2:12.04 | 125087 | 134990
10 | 29:59.66 | 3:12.27 | 134991 | 149417
11 | 33:12.18 | 5:02.61 | 149418 | 172128
12 | 38:15.04 | 3:44.23 | 172129 | 188951
13 | 41:59.27 | 3:50.29 | 188952 | 206230
14 | 45:49.56 | 1:32.39 | 206231 | 213169
15 | 47:22.20 | 4:59.54 | 213170 | 235648

Характеристики диапазона извлечения и сообщения об ошибках

Выбранный диапазон

Имя файла C:\Пирг & Духовна Лира - Концерт в Париже.wav

Пиковый уровень 94.8 %
Скорость извлечения 4.9 X
Качество диапазона 100.0 %
CRC копии 2B1FFC1C
Копирование... OK

Ошибок не произошло

Конец отчёта

==== Контрольная сумма отчёта FD6D5ADAB6DE22EE58C937F9ECDAB192890226E626A1D2366E3547506B3A26EE ====
Обложки в раздаче.
Download

Войдите для скачивания торрент-файла

Как скачивать  ·   Правила трекера

[Профиль]  [ЛС] 
Показать сообщения:    
Ответить на тему

Текущее время: 23-Май 22:52

Часовой пояс: GMT + 4



Вы не можете начинать темы
Вы не можете отвечать на сообщения
Вы не можете редактировать свои сообщения
Вы не можете удалять свои сообщения
Вы не можете голосовать в опросах
Вы не можете прикреплять файлы к сообщениям
Вы не можете скачивать файлы