Loading...
Error

(Акафисты, каноны, молебны (lossless).) "Акафист святителю Николаю". Читает протодиакон Николай Платонов. - 2011, APE (image + .cue), lossless

Ответить на тему
Статистика раздачи
Скачали: [ 6 ]
   
 
Автор Сообщение

СЕРГУЛЕТ

Стаж: 8 лет

Сообщений: 2639

Откуда: LA ROMANA

Dominicanrep

post 12-Янв-2012 07:08

[Цитировать] 

"Акафист святителю Николаю". Читает протодиакон Николай Платонов.

pic
Страна: Россия.
Жанр: Акафисты, каноны, молебны (lossless).
Год выпуска: 2011
Формат: APE (image + .cue)
Битрейт аудио: lossless
Продолжительность: 01:00:14
Обложки+Содержание
picpic
EAC log
Exact Audio Copy V1.0 beta 2 from 29. April 2011

Отчёт EAC об извлечении, выполненном 31. декабря 2011, 18:29

Николай Платонов / Акафист святителю Николаю

Дисковод: ASUS DRW-2014L1T Adapter: 2 ID: 1

Режим чтения : Достоверность
Использование точного потока : Да
Отключение кэша аудио : Да
Использование указателей C2 : Нет

Коррекция смещения при чтении : 6
Способность читать области Lead-in и Lead-out : Нет
Заполнение пропущенных сэмплов тишиной : Да
Удаление блоков с тишиной в начале и конце : Нет
При вычислениях CRC использовались нулевые сэмплы : Да
Интерфейс : Встроенный Win32-интерфейс для Win NT/2000

Выходной формат : Внутренние WAV-операции
Формат сэмплов : 44.100 Гц; 16 бит; стерео

TOC извлечённого CD

Трек | Старт | Длительность | Начальный сектор | Конечный сектор
---------------------------------------------------------------------
1 | 0:00.00 | 1:32.57 | 0 | 6956
2 | 1:32.57 | 1:36.57 | 6957 | 14213
3 | 3:09.39 | 42:25.38 | 14214 | 205126
4 | 45:35.02 | 2:14.00 | 205127 | 215176
5 | 47:49.02 | 2:18.38 | 215177 | 225564
6 | 50:07.40 | 2:47.57 | 225565 | 238146
7 | 52:55.22 | 3:20.47 | 238147 | 253193
8 | 56:15.69 | 2:10.00 | 253194 | 262943
9 | 58:25.69 | 1:48.66 | 262944 | 271109

Характеристики диапазона извлечения и сообщения об ошибках

Выбранный диапазон

Имя файла C:\Николай Платонов - Акафист святителю Николаю.wav

Пиковый уровень 98.8 %
Скорость извлечения 8.2 X
Качество диапазона 99.9 %
CRC копии 82CBC9B7
Копирование... OK

Ошибок не произошло

Конец отчёта

==== Контрольная сумма отчёта 4CC3ECE57BAE63EE118572A37D578CA3E9AAE4A7CE093E5F6B96D0DA381D134B ====
Download

Войдите для скачивания торрент-файла

Как скачивать  ·   Правила трекера

[Профиль]  [ЛС] 

Странник1

Стаж: 7 лет 2 месяца

Сообщений: 2308

Russia

post 12-Янв-2012 08:32 (спустя 1 час 24 минуты)

[Цитировать] 

Спаси Господи!
[Профиль]  [ЛС] 

y2011vv

Стаж: 5 лет 8 месяцев

Сообщений: 2

post 19-Дек-2012 10:00 (спустя 11 месяцев)

[Цитировать] 

С праздником Святителя Николая,
архиепископа Мир Ликийских чудотворца!!!
[Профиль]  [ЛС] 

shymsknik

Стаж: 6 лет 1 месяц

Сообщений: 179

Russia

post 09-Янв-2013 23:24 (спустя 21 день)

[Цитировать] 

Хорошый протодиакон!
[Профиль]  [ЛС] 

stepan-frunze

Стаж: 7 лет 11 месяцев

Сообщений: 2565

Russia

post 20-Мар-2013 17:44 (спустя 2 месяца 10 дней)

[Цитировать] 

Спаси Господи!
[Профиль]  [ЛС] 

михаил синцов

Стаж: 7 лет 3 месяца

Сообщений: 61

Russia

post 29-Май-2013 16:30 (спустя 2 месяца 8 дней)

[Цитировать] 

Спасибо!
[Профиль]  [ЛС] 
Показать сообщения:    
Ответить на тему

Текущее время: 20-Фев 17:27

Часовой пояс: GMT + 4



Вы не можете начинать темы
Вы не можете отвечать на сообщения
Вы не можете редактировать свои сообщения
Вы не можете удалять свои сообщения
Вы не можете голосовать в опросах
Вы не можете прикреплять файлы к сообщениям
Вы не можете скачивать файлы