Loading...
Error

(Церковная музыка Греции, Афона и Сербии (lossless).)"Песнопения вечерни на праздник св. Марии Магдалины" (2CD) - 2006, APE (image + .cue), lossless

Ответить на тему
Статистика раздачи
   
 
Автор Сообщение

СЕРГУЛЕТ

Стаж: 12 лет

Сообщений: 2637

Откуда: LA ROMANA

Dominicanrep

post 18-Ноя-2009 01:34

[Цитировать] 

"Песнопения вечерни на праздник св. Марии Магдалины" (2CD) / Εσπερινός / Vespers [Αγρυπνία Αγ. Μαρίας Μαγδαληνής]
pic
Страна: Греция
Жанр: Церковная музыка Греции, Афона и Сербии (lossless)
Год выпуска: 2006
Формат: APE (image + .cue)
Битрейт аудио: lossless
Продолжительность: 01:01:59/00:59:53
Трэклист:
CD1
01-04. Kαμπάνες – Σήμαντρον
05. Eισελεύσομαι, Ήχ. πλ. δ’
06. Προοιμιακός (Ψαλμ. 103)
07. Mακάριος ανήρ, Ήχ. πλ. δ’
08. Aίτησις
09. Kύριε εκέκραξα, Ήχ. α’
10. Kατευθυνθήτω, Ήχ. α’
11. Στιχολογία αγιορειτική, Ήχ. α’
12. Στιχηρά προσόμοια, Ήχ. α’
13. Στιχηρά προσόμοια, Ήχ. β’
CD2
01. Δοξαστικόν, Ήχ. πλ. β’
02. Aναγνώσματα
ΛITH: 3. Iδιόμελον, Ήχ. α’
04. Iδιόμελον, Ήχ. β’
05. Δόξα, Ήχ. πλ. α’
06. Kαι νυν, Ήχ. πλ. α’
07. Eκτενής – Kύριε ελέησον
08. Aπολυτίκιον, Ήχ. α’
09-10. Θεοτόκε Παρθένε… Mαρία, Ήχ. γ’ – Kαι ευλογημένος… Ήχ. πλ. α’
11. Πλούσιοι επτώχευσαν, Ήχ. πλ. α’
Ψάλλει ο χορός του Ιερού Κοινοβίου Ευαγγελισμού Ορμυλίας.

EAC log
Exact Audio Copy V0.99 prebeta 5 from 4. May 2009

Отчёт EAC об извлечении, выполненном 17. ноября 2009, 20:25

Поёт хор женского киновиального монастыря Ормилия ( Греция ) / Песнопения вечерни на праздник св. Марии Магдалины-1

Дисковод: ASUS BC-1205PT Adapter: 1 ID: 0

Режим чтения : Достоверность
Использование точного потока : Да
Отключение кэша аудио : Да
Использование указателей C2 : Нет

Коррекция смещения при чтении : 667
Способность читать области Lead-in и Lead-out : Нет
Заполнение пропущенных сэмплов тишиной : Да
Удаление блоков с тишиной в начале и конце : Нет
При вычислениях CRC использовались нулевые сэмплы : Да
Интерфейс : Встроенный Win32-интерфейс для Win NT/2000

Выходной формат : Внутренние WAV-операции
Формат сэмплов : 44.100 Гц; 16 бит; стерео

TOC извлечённого CD

Трек | Старт | Длительность | Начальный сектор | Конечный сектор
---------------------------------------------------------------------
1 | 0:00.00 | 2:08.03 | 0 | 9602
2 | 2:08.03 | 2:37.50 | 9603 | 21427
3 | 4:45.53 | 4:06.60 | 21428 | 39937
4 | 8:52.38 | 2:16.35 | 39938 | 50172
5 | 11:08.73 | 4:28.63 | 50173 | 70335
6 | 15:37.61 | 5:24.38 | 70336 | 94673
7 | 21:02.24 | 9:53.05 | 94674 | 139153
8 | 30:55.29 | 1:59.13 | 139154 | 148091
9 | 32:54.42 | 5:55.24 | 148092 | 174740
10 | 38:49.66 | 3:38.07 | 174741 | 191097
11 | 42:27.73 | 7:58.71 | 191098 | 227018
12 | 50:26.69 | 5:29.21 | 227019 | 251714
13 | 55:56.15 | 6:01.18 | 251715 | 278807

Характеристики диапазона извлечения и сообщения об ошибках

Выбранный диапазон

Имя файла C:\Поёт хор женского киновиального монастыря Ормилия ( Греция ) - Песнопения вечерни на праздник св. Марии Магдалины-1.wav

Пиковый уровень 100.0 %
Качество диапазона 99.9 %
CRC копии 84E0C97C
Копирование... OK

Ошибок не произошло

CD2.
Exact Audio Copy V0.99 prebeta 5 from 4. May 2009

Отчёт EAC об извлечении, выполненном 17. ноября 2009, 20:36

Поёт хор женского киновиального монастыря Ормилия ( Греция ) / Песнопения вечерни на праздник св. Марии Магдалины-2

Дисковод: ASUS BC-1205PT Adapter: 1 ID: 0

Режим чтения : Достоверность
Использование точного потока : Да
Отключение кэша аудио : Да
Использование указателей C2 : Нет

Коррекция смещения при чтении : 667
Способность читать области Lead-in и Lead-out : Нет
Заполнение пропущенных сэмплов тишиной : Да
Удаление блоков с тишиной в начале и конце : Нет
При вычислениях CRC использовались нулевые сэмплы : Да
Интерфейс : Встроенный Win32-интерфейс для Win NT/2000

Выходной формат : Внутренние WAV-операции
Формат сэмплов : 44.100 Гц; 16 бит; стерео

TOC извлечённого CD

Трек | Старт | Длительность | Начальный сектор | Конечный сектор
---------------------------------------------------------------------
1 | 0:00.00 | 8:16.22 | 0 | 37221
2 | 8:16.22 | 5:49.11 | 37222 | 63407
3 | 14:05.33 | 4:16.00 | 63408 | 82607
4 | 18:21.33 | 3:44.50 | 82608 | 99457
5 | 22:06.08 | 5:13.25 | 99458 | 122957
6 | 27:19.33 | 2:09.53 | 122958 | 132685
7 | 29:29.11 | 14:54.04 | 132686 | 199739
8 | 44:23.15 | 1:11.16 | 199740 | 205080
9 | 45:34.31 | 3:47.71 | 205081 | 222176
10 | 49:22.27 | 8:15.36 | 222177 | 259337
11 | 57:37.63 | 2:13.13 | 259338 | 269325

Характеристики диапазона извлечения и сообщения об ошибках

Выбранный диапазон

Имя файла C:\Поёт хор женского киновиального монастыря Ормилия ( Греция ) - Песнопения вечерни на праздник св. Марии Магдалины-2.wav

Пиковый уровень 100.0 %
Качество диапазона 100.0 %
CRC копии 7F6A9ABF
Копирование... OK

Ошибок не произошло

Обложки и содержание
picpic

Дополнительная информация
Поёт хор женского киновиального монастыря Благовещения Пресвятой Богородицы Ормилия (Греция) / Εσπερινός / Vespers [Αγρυπνία Αγ. Μαρίας Μαγδαληνής]

Download

Войдите на сайт, чтобы увидеть полную информацию.

Как скачивать  ·   Правила трекера

[Профиль]  [ЛС] 

gavrik.s

Стаж: 9 лет 6 месяцев

Сообщений: 85

post 25-Янв-2012 11:01 (спустя 2 года 2 месяца)

[Цитировать] 

Спасибо, душевно.
[Профиль]  [ЛС] 

vika010288

Стаж: 12 лет

Сообщений: 456

Georgia

post 26-Янв-2012 20:15 (спустя 1 день 9 часов)

[Цитировать] 

Спасибо.
[Профиль]  [ЛС] 

poluno4-nik

Стаж: 10 лет

Сообщений: 12

post 18-Окт-2012 22:35 (спустя 8 месяцев)

[Цитировать] 

Ув. Сергулет! спасибо за раздачу. давно искал эту замечательную музыку.
Всем: вот содержание на русском. Поправьте пожалуйста если есть ошибки.
CD 1
скрытый текст
01 Колокола - била
02 Колокола - била
03 Колокола - била
04 Колокола - била
05 -Вниду в дом Твой- (пс.5) Гл.8
06 Предначинательный псалом. -Благослови душе моя Господа...- Пс. 103
07 Антифон 1. -Блажен муж...- Пс. 1. Гл.8
08 Мирная ектения
09 Господи воззвах... Гл.1
10 Да исправится молитва моя. Гл.1 (протопсалта Иакова, 1800г.)
11 Афонское стихословие.(Псалмы на Господи воззвах. Пс. 140, 141, 129) Гл.1
12 Стихира подобна. Гл.1
13 Стихира подобна. Гл.2
CD 2
скрытый текст
01 Слава... Приидите празднолюбцы... Гл.6
02 Чтения на литии (три)
03 Самогласен литии -Духовным-. Гл.1
04 Самогласен литии -Приидите вси...-. Гл.2
05 Слава... Гл.5
06 и ныне... Гл5
07 Великая ектения, Господи помилуй (святогорский распев)
08 Тропарь -Мария честная...-. Гл.1
09 -Богородице Дево...-, -Терирем-. Гл.3 (П.Берекети)
10 -И благословен...- Гл.5
11 -Богатии обнищаше...- Гл.5


Последний раз редактировалось: poluno4-nik (2012-10-27 14:59), всего редактировалось 3 раз(а)
[Профиль]  [ЛС] 

poluno4-nik

Стаж: 10 лет

Сообщений: 12

post 24-Окт-2012 23:52 (спустя 6 дней)

[Цитировать] 

к сожалению небольшой провальчик. (проверил перезакачав)
Decoding failure at 13:32.988 (Unsupported format or corrupted file):
"C:\ОРМИЛИЯ_ПЕСНОПЕНИЯ_ВЕЧЕРНИ_НА_ПРАЗДНИК_МАРИЙ_МАГДАЛИНЫ\CD1\Поёт хор женского киновиального монастыря Ормилия ( Греция ) - Песнопения вечерни на праздник св. Марии Магдалины-1.ape"
ps. нашёл 2 альтернативных источника. скачал - то же самое. В итоге просто заменил №5 из сокращённого издания (есть на многих трекерах)
[Профиль]  [ЛС] 
Показать сообщения:    
Ответить на тему

Текущее время: 24-Июл 04:42

Часовой пояс: GMT + 4



Вы не можете начинать темы
Вы не можете отвечать на сообщения
Вы не можете редактировать свои сообщения
Вы не можете удалять свои сообщения
Вы не можете голосовать в опросах
Вы не можете прикреплять файлы к сообщениям
Вы не можете скачивать файлы