Loading...
Error

(Церковная музыка Греции, Афона и Сербии (lossless)) "Песнопения утрени на праздник св. Марии Магдалины" (2CD) - 2006, APE (image + .cue), lossless

Ответить на тему
Статистика раздачи
   
 
Автор Сообщение

СЕРГУЛЕТ

Стаж: 12 лет

Сообщений: 2637

Откуда: LA ROMANA

Dominicanrep

post 18-Ноя-2009 01:43

[Цитировать] 

"Песнопения утрени на праздник св. Марии Магдалины"(2CD) / Όρθρος / Matins [Αγρυπνία Αγ. Μαρίας Μαγδαληνής]
pic
Страна: Греция
Жанр: Церковная музыка Греции, Афона и Сербии (lossless)
Год выпуска: 2006
Формат: APE (image + .cue)
Битрейт аудио: lossless
Продолжительность: 01:47:00/01:01:00
Трэклист:
CD1
01. Eγκώμιον – Eυλογητός ο Θεός
02. Kαθίσματα, Ήχ. α’
03. Kαθίσματα, Ήχ. πλ. δ’
04. Πολυέλεος – Δούλοι Kύριον, Ήχ. πλ. α’
05. Eξομολογείσθε, Tρίηχον α’, Ήχ. βαρύς, πλ. δ’
06. Eκλογή. Tο στερέωμα, Ήχ. πλ. δ’
07. Kράτημα, Ήχ. πλ. δ’
08. Δόξα – Kαι νυν, Ήχ. α’
09. Aίτησις
10. Aναβαθμοί, Ήχ. δ’ (Eκ νεότητός μου)
11. Ωδή A’, Ήχ. πλ. α’, Ήχ. πλ. δ’
12. Aνοίξω το στόμα μου, Ήχ. δ’
13. Ωδή Γ’, Ήχ. πλ. α’, πλ. δ’
14. Tους σους υμνολόγους, Ήχ. δ’
15. Tην θείαν ταύτην, Ήχ. δ’
CD2
01. Kοντάκιον – Oίκος – Συναξάριον
02. Tην Tιμιωτέραν, Ήχ. πλ. α’
03. Ωδή Θ’, Ήχ. πλ. α’, πλ. δ’
04. Άπας γηγενής, Ήχ. δ’
05. Aίτησις
06. Eξαποστειλάρια
07. Πάσα πνοή, Ήχ. πλ. δ’
08. Aινείτε, Ήχ. πλ. δ’
09. Στιχολογία, Ήχ. πλ. δ’
10-11. Στιχηρά προσόμοια, Ήχ. πλ. δ’
12. Δόξα, Ήχ. πλ. α’
13. Kαι νυν, Ήχ. πλ. α’
14. Δοξολογία, Ήχ. α’
15. Aσματικόν, Ήχ. α’
16. Aπολυτίκιον, Ήχ. α’
Ψάλλει ο χορός του Ιερού Κοινοβίου Ευαγγελισμού Ορμυλίας.

EAC log
Exact Audio Copy V0.99 prebeta 5 from 4. May 2009

Отчёт EAC об извлечении, выполненном 17. ноября 2009, 19:58

Поёт хор женского киновиального монастыря Ормилия ( Греция ) / Песнопения утрени на праздник св. Марии Магдалины-1

Дисковод: ASUS BC-1205PT Adapter: 1 ID: 0

Режим чтения : Достоверность
Использование точного потока : Да
Отключение кэша аудио : Да
Использование указателей C2 : Нет

Коррекция смещения при чтении : 667
Способность читать области Lead-in и Lead-out : Нет
Заполнение пропущенных сэмплов тишиной : Да
Удаление блоков с тишиной в начале и конце : Нет
При вычислениях CRC использовались нулевые сэмплы : Да
Интерфейс : Встроенный Win32-интерфейс для Win NT/2000

Выходной формат : Внутренние WAV-операции
Формат сэмплов : 44.100 Гц; 16 бит; стерео

TOC извлечённого CD

Трек | Старт | Длительность | Начальный сектор | Конечный сектор
---------------------------------------------------------------------
1 | 0:00.00 | 1:06.01 | 0 | 4950
2 | 1:06.01 | 2:05.49 | 4951 | 14374
3 | 3:11.50 | 3:03.37 | 14375 | 28136
4 | 6:15.12 | 6:31.13 | 28137 | 57474
5 | 12:46.25 | 7:47.36 | 57475 | 92535
6 | 20:33.61 | 6:57.73 | 92536 | 123883
7 | 27:31.59 | 2:14.57 | 123884 | 133990
8 | 29:46.41 | 1:45.62 | 133991 | 141927
9 | 31:32.28 | 1:38.70 | 141928 | 149347
10 | 33:11.23 | 6:09.54 | 149348 | 177076
11 | 39:21.02 | 8:19.72 | 177077 | 214573
12 | 47:40.74 | 1:27.35 | 214574 | 221133
13 | 49:08.34 | 6:52.59 | 221134 | 252092
14 | 56:01.18 | 1:31.49 | 252093 | 258966
15 | 57:32.67 | 3:12.40 | 258967 | 273406

Характеристики диапазона извлечения и сообщения об ошибках

Выбранный диапазон

Имя файла C:\Поёт хор женского киновиального монастыря Ормилия ( Греция ) - Песнопения утрени на праздник св. Марии Магдалины-1.wav

Пиковый уровень 100.0 %
Качество диапазона 99.9 %
CRC копии 0F967862
Копирование... OK

Ошибок не произошло

СD2.
Exact Audio Copy V0.99 prebeta 5 from 4. May 2009

Отчёт EAC об извлечении, выполненном 17. ноября 2009, 20:11

- / Песнопения утрени на праздник св. Марии Магдалины-2

Дисковод: ASUS BC-1205PT Adapter: 1 ID: 0

Режим чтения : Достоверность
Использование точного потока : Да
Отключение кэша аудио : Да
Использование указателей C2 : Нет

Коррекция смещения при чтении : 667
Способность читать области Lead-in и Lead-out : Нет
Заполнение пропущенных сэмплов тишиной : Да
Удаление блоков с тишиной в начале и конце : Нет
При вычислениях CRC использовались нулевые сэмплы : Да
Интерфейс : Встроенный Win32-интерфейс для Win NT/2000

Выходной формат : Внутренние WAV-операции
Формат сэмплов : 44.100 Гц; 16 бит; стерео

TOC извлечённого CD

Трек | Старт | Длительность | Начальный сектор | Конечный сектор
---------------------------------------------------------------------
1 | 0:00.00 | 2:19.34 | 0 | 10458
2 | 2:19.34 | 4:59.35 | 10459 | 32918
3 | 7:18.69 | 6:32.37 | 32919 | 62355
4 | 13:51.31 | 2:09.70 | 62356 | 72100
5 | 16:01.26 | 1:55.14 | 72101 | 80739
6 | 17:56.40 | 2:21.52 | 80740 | 91366
7 | 20:18.17 | 1:28.15 | 91367 | 97981
8 | 21:46.32 | 2:17.28 | 97982 | 108284
9 | 24:03.60 | 3:43.65 | 108285 | 125074
10 | 27:47.50 | 2:27.15 | 125075 | 136114
11 | 30:14.65 | 2:27.34 | 136115 | 147173
12 | 32:42.24 | 9:50.04 | 147174 | 191427
13 | 42:32.28 | 0:51.26 | 191428 | 195278
14 | 43:23.54 | 12:37.29 | 195279 | 252082
15 | 56:01.08 | 2:43.42 | 252083 | 264349
16 | 58:44.50 | 1:14.42 | 264350 | 269941

Характеристики диапазона извлечения и сообщения об ошибках

Выбранный диапазон

Имя файла C:\Песнопения утрени на праздник св. Марии Магдалины-2.wav

Пиковый уровень 99.9 %
Качество диапазона 99.9 %
CRC копии 0FD5A057
Копирование... OK

Ошибок не произошло

Обложки и содержание
Обложек нет, просьба помочь с обложками...

Дополнительная информация
Поёт хор женского киновиального монастыря Благовещения Пресвятой Богородицы Ормилия (Греция) / Όρθρος / Matins [Αγρυπνία Αγ. Μαρίας Μαγδαληνής]

Download

Войдите на сайт, чтобы увидеть полную информацию.

Как скачивать  ·   Правила трекера

[Профиль]  [ЛС] 

tveryezaya

Стаж: 11 лет

Сообщений: 2

post 10-Май-2010 09:36 (спустя 5 месяцев 22 дня)

[Цитировать] 

К сожалению, возникла ошибка при записи 1 cd
[Профиль]  [ЛС] 

poluno4-nik

Стаж: 10 лет

Сообщений: 12

post 18-Окт-2012 22:57 (спустя 2 года 5 месяцев)

[Цитировать] 

Ув. Сергулет! спасибо за раздачу.

Всем: содержание на русском. Буду благодарен если поможете исправить недочёты.
CD 1
скрытый текст
01 начало -Благословен Бог наш...- Трисвятое...
02 Седален, Глас 1
03 Седален, глас 8
04 Полиелей -Хвалите имя Господне...- (пс. 134), глас 5
05 -Исповедайтеся Господеви...-, Афонское Гл.1 и 8
06 Избранные стихи -Утверждение-.Гл.8 (Корнилия Симонопетрита)
07 Кратима Анеена (Феодора Фокея)
08 Слава и ныне гл. 1
09 Малая ектения
10 -От юности моея...- Гл. 4
11 Канон Песнь 1, Гл. 5 и 8
12 Ирмос -Отверзу уста моя...- Гл.4
13 Канон Песнь 3, Гл. 5 и 8
14 Ирмос -Твоя песнословцы Богородице...- Гл.4
15 -Божественное сие и всечестное...- Гл.4
CD 2
скрытый текст
01 Кондак - Икос - чтение в Синаксарии
02 -Честнейшую Херувим...- Гл.5
03 Песнь 9. Гл.5, 8
04 -Всяк земнородный...- Ирмос Гл.4, Гл.
05 Малая ектения
06 Екзапостиларии (протопсалта Иакова 1800г)
07 -Всякое дыхание...- Гл.8
08 -Хвалите Имя Господне...- Гл.8
09 Стихословие. Гл.8
10 Стихира подобна на хвалитех -Христу явльшуся...- Гл.8
11 Стихира подобна на хвалитех -Христу явльшуся...- Гл.8
12 Слава: Вострубим, Гл.5
13 И ныне: Ублажаем тя Гл.5
14 Славословие великое Гл.1(протопсалта Иакова 1800г)
15 Асматикон Гл.1 (П.Берекети)
16 Отпустительный тропарь Гл.1
[Профиль]  [ЛС] 
Показать сообщения:    
Ответить на тему

Текущее время: 25-Июл 14:24

Часовой пояс: GMT + 4



Вы не можете начинать темы
Вы не можете отвечать на сообщения
Вы не можете редактировать свои сообщения
Вы не можете удалять свои сообщения
Вы не можете голосовать в опросах
Вы не можете прикреплять файлы к сообщениям
Вы не можете скачивать файлы