Loading...
Error

(Церковная музыка и церковные хоры (lossless).) "Союзом Любве". Песнопения Рождества Христова, Великого Поста и Пасхи. - 2002, APE (image + .cue), lossless

Ответить на тему
Статистика раздачи
Скачали: [ 12 ]
   
 
Автор Сообщение

СЕРГУЛЕТ

Стаж: 8 лет

Сообщений: 2639

Откуда: LA ROMANA

Dominicanrep

post 05-Ноя-2009 20:56

[Цитировать] 

"Союзом Любве". Песнопения Рождества Христова, Великого Поста и Пасхи.

pic
Страна: Россия. Московское Подворье Свято-Троице Сергиевой Лавры.
Жанр: Церковная музыка и церковные хоры (lossless).
Год выпуска: 2002
Формат: APE (image + .cue)
Битрейт аудио: lossless
Продолжительность: 01:02:02
Обложки+Содержание
picpic
Дополнительная информация: Мужской хор МПТСЛ под управлением Владимира Горбика.
Запись 20. 11. 2001 года в зале Церковных Соборов храма Христа Спасителя.
EAC log
Exact Audio Copy V0.99 prebeta 5 from 4. May 2009

Отчёт EAC об извлечении, выполненном 5. ноября 2009, 13:57

In The Bond Of Love / Holy Trinity And St Sergius

Дисковод: ASUS BC-1205PT Adapter: 1 ID: 0

Режим чтения : Достоверность
Использование точного потока : Да
Отключение кэша аудио : Да
Использование указателей C2 : Нет

Коррекция смещения при чтении : 667
Способность читать области Lead-in и Lead-out : Нет
Заполнение пропущенных сэмплов тишиной : Да
Удаление блоков с тишиной в начале и конце : Нет
При вычислениях CRC использовались нулевые сэмплы : Да
Интерфейс : Встроенный Win32-интерфейс для Win NT/2000

Выходной формат : Внутренние WAV-операции
Формат сэмплов : 44.100 Гц; 16 бит; стерео

TOC извлечённого CD

Трек | Старт | Длительность | Начальный сектор | Конечный сектор
---------------------------------------------------------------------
1 | 0:00.00 | 1:38.52 | 0 | 7401
2 | 1:38.52 | 1:55.43 | 7402 | 16069
3 | 3:34.20 | 3:45.20 | 16070 | 32964
4 | 7:19.40 | 2:46.56 | 32965 | 45470
5 | 10:06.21 | 2:33.33 | 45471 | 56978
6 | 12:39.54 | 4:15.00 | 56979 | 76103
7 | 16:54.54 | 2:28.61 | 76104 | 87264
8 | 19:23.40 | 6:48.38 | 87265 | 117902
9 | 26:12.03 | 6:12.33 | 117903 | 145835
10 | 32:24.36 | 6:19.07 | 145836 | 174267
11 | 38:43.43 | 2:59.40 | 174268 | 187732
12 | 41:43.08 | 5:31.15 | 187733 | 212572
13 | 47:14.23 | 4:01.07 | 212573 | 230654
14 | 51:15.30 | 2:40.71 | 230655 | 242725
15 | 53:56.26 | 3:07.70 | 242726 | 256820
16 | 57:04.21 | 3:41.51 | 256821 | 273446
17 | 60:45.72 | 1:14.27 | 273447 | 279023

Характеристики диапазона извлечения и сообщения об ошибках

Выбранный диапазон

Имя файла C:\In The Bond Of Love - Holy Trinity And St Sergius.wav

Пиковый уровень 99.9 %
Качество диапазона 100.0 %
CRC копии A46741A7
Копирование... OK

Ошибок не произошло
Download

Войдите для скачивания торрент-файла

Как скачивать  ·   Правила трекера

[Профиль]  [ЛС] 

alf_erov

post 17-Авг-2012 11:47 (спустя 2 года 9 месяцев)

[Цитировать] 

СЕРГУЛЕТ Раздайте диск, пожалуйста! Очень нужно!
 

Горсвет

Стаж: 5 лет 2 месяца

Сообщений: 113

Ukraine

post 17-Авг-2012 14:17 (спустя 2 часа 29 минут)

[Цитировать] 

Статистика раздачи
Нет
ето как понять?

_________________
ДА ЛЮБИТЕ ДРУГ ДРУГА
[Профиль]  [ЛС] 

stepan-frunze

Стаж: 7 лет 11 месяцев

Сообщений: 2565

Russia

post 06-Апр-2015 03:54 (спустя 2 года 7 месяцев)

[Цитировать] 

Благодарю!
[Профиль]  [ЛС] 
Показать сообщения:    
Ответить на тему

Текущее время: 25-Фев 08:28

Часовой пояс: GMT + 4



Вы не можете начинать темы
Вы не можете отвечать на сообщения
Вы не можете редактировать свои сообщения
Вы не можете удалять свои сообщения
Вы не можете голосовать в опросах
Вы не можете прикреплять файлы к сообщениям
Вы не можете скачивать файлы