Loading...
Error

(Церковная музыка и церковные хоры (lossless)) "Иже добродетелей подвижник..." Молебное пение с акафистом Преподобному Сергию, игумену Радонежскому. - 2012, APE (image + .cue), lossless

Ответить на тему
Статистика раздачи
Скачали: [ 11 ]
   
 
Автор Сообщение

СЕРГУЛЕТ

Стаж: 8 лет

Сообщений: 2639

Откуда: LA ROMANA

Dominicanrep

post 31-Июл-2012 09:54

[Цитировать] 

"Иже добродетелей подвижник..." Молебное пение с акафистом Преподобному Сергию, игумену Радонежскому.

pic
Страна: Россия. Студия звукозаписи "Троицкий глас".
Жанр: Церковная музыка и церковные хоры (lossless)
Год выпуска: 2012
Формат: APE (image + .cue)
Битрейт аудио: lossless
Продолжительность: 01:18:22
Обложки диска+Содержание
picpic
Дополнительная информация: 700-летию со дня рождения Преподобного Сергия Радонежского.
Акафист читает игумен Диодор (Дидковский).
Мужской хор под управлением регента А. Покровского.
Запись произведена в Успенском соборе Свято-Троицкой Сергиевой Лавры.
EAC log
Exact Audio Copy V1.0 beta 2 from 29. April 2011

Отчёт EAC об извлечении, выполненном 31. июля 2012, 9:23

Мужской хор п/у А. Покровского / Иже добродетелей подвижник...

Дисковод: ASUS DRW-2014L1T Adapter: 2 ID: 1

Режим чтения : Достоверность
Использование точного потока : Да
Отключение кэша аудио : Да
Использование указателей C2 : Нет

Коррекция смещения при чтении : 6
Способность читать области Lead-in и Lead-out : Нет
Заполнение пропущенных сэмплов тишиной : Да
Удаление блоков с тишиной в начале и конце : Нет
При вычислениях CRC использовались нулевые сэмплы : Да
Интерфейс : Встроенный Win32-интерфейс для Win NT/2000

Выходной формат : Внутренние WAV-операции
Формат сэмплов : 44.100 Гц; 16 бит; стерео

TOC извлечённого CD

Трек | Старт | Длительность | Начальный сектор | Конечный сектор
---------------------------------------------------------------------
1 | 0:00.00 | 3:50.43 | 0 | 17292
2 | 3:50.43 | 4:57.53 | 17293 | 39620
3 | 8:48.21 | 4:17.23 | 39621 | 58918
4 | 13:05.44 | 3:26.06 | 58919 | 74374
5 | 16:31.50 | 3:28.65 | 74375 | 90039
6 | 20:00.40 | 3:20.08 | 90040 | 105047
7 | 23:20.48 | 3:31.07 | 105048 | 120879
8 | 26:51.55 | 3:13.32 | 120880 | 135386
9 | 30:05.12 | 2:59.38 | 135387 | 148849
10 | 33:04.50 | 3:05.45 | 148850 | 162769
11 | 36:10.20 | 3:28.51 | 162770 | 178420
12 | 39:38.71 | 3:47.05 | 178421 | 195450
13 | 43:26.01 | 3:46.19 | 195451 | 212419
14 | 47:12.20 | 3:42.11 | 212420 | 229080
15 | 50:54.31 | 2:59.57 | 229081 | 242562
16 | 53:54.13 | 2:33.46 | 242563 | 254083
17 | 56:27.59 | 1:49.32 | 254084 | 262290
18 | 58:17.16 | 2:36.43 | 262291 | 274033
19 | 60:53.59 | 2:11.32 | 274034 | 283890
20 | 63:05.16 | 0:57.26 | 283891 | 288191
21 | 64:02.42 | 1:22.51 | 288192 | 294392
22 | 65:25.18 | 0:59.47 | 294393 | 298864
23 | 66:24.65 | 1:19.53 | 298865 | 304842
24 | 67:44.43 | 1:17.15 | 304843 | 310632
25 | 69:01.58 | 3:01.00 | 310633 | 324207
26 | 72:02.58 | 3:35.18 | 324208 | 340350
27 | 75:38.01 | 2:44.60 | 340351 | 352710

Характеристики диапазона извлечения и сообщения об ошибках

Выбранный диапазон

Имя файла C:\Мужской хор п,у А. Покровского - Иже добродетелей подвижник....wav

Пиковый уровень 81.3 %
Скорость извлечения 9.6 X
Качество диапазона 100.0 %
CRC копии 121FB1B5
Копирование... OK

Ошибок не произошло

Конец отчёта

==== Контрольная сумма отчёта 291F80CC8611CE962809C7395259BB9B8A1CFB91C6C8544305102AD3D84F49F8 ====
Download

Войдите для скачивания торрент-файла

Как скачивать  ·   Правила трекера

[Профиль]  [ЛС] 

brd_eugene

Стаж: 8 лет 2 месяца

Сообщений: 64

Ukraine

post 31-Июл-2012 22:47 (спустя 12 часов)

[Цитировать] 

Спаси Вас Бог!
[Профиль]  [ЛС] 

СЕРГУЛЕТ

Стаж: 8 лет

Сообщений: 2639

Откуда: LA ROMANA

Dominicanrep

post 01-Авг-2012 21:15 (спустя 22 часа)

[Цитировать] 

Просьба ко всем скачавшим: постойте на раздаче.
[Профиль]  [ЛС] 

Странник1

Стаж: 7 лет 2 месяца

Сообщений: 2308

Russia

post 10-Авг-2012 12:54 (спустя 8 дней)

[Цитировать] 

Спаси Господи
[Профиль]  [ЛС] 

CEPBEP4

Стаж: 5 лет 11 месяцев

Сообщений: 133

Откуда: ОРЕНБУРГ

Russia

post 07-Июн-2015 12:15 (спустя 2 года 9 месяцев)

[Цитировать] 

Спасибо забираю...

_________________
pic
pic 100 Мбит/с pic 100 Мбит/с pic
[Профиль]  [ЛС] 
Показать сообщения:    
Ответить на тему

Текущее время: 22-Фев 14:42

Часовой пояс: GMT + 4



Вы не можете начинать темы
Вы не можете отвечать на сообщения
Вы не можете редактировать свои сообщения
Вы не можете удалять свои сообщения
Вы не можете голосовать в опросах
Вы не можете прикреплять файлы к сообщениям
Вы не можете скачивать файлы