Loading...
Error

(Церковная музыка и церковные хоры (lossless)) Церковные песнопения хоров Свято-Успенской Почаевской Лавры. 7 CD. (I часть). - 2011-2012, APE (image + .cue), lossless

Страницы:  1, 2  След.

Ответить на тему
Статистика раздачи
Скачали: [ 22 ]
   
 
Автор Сообщение

СЕРГУЛЕТ

Стаж: 7 лет 9 месяцев

Сообщений: 2639

Откуда: LA ROMANA

Dominicanrep

post 29-Май-2012 15:57

[Цитировать] 

Церковные песнопения хоров Свято-Успенской Почаевской Лавры. 7 CD. (I часть).

pic
Страна: Украина. Свято-Успенская Почаевская Лавра.
Жанр: Церковная музыка и церковные хоры (lossless)
Год выпуска: 2011-2012
Формат: APE (image + .cue)
Битрейт аудио: lossless
Трэклист:
CD1. Всенощная. 01:13:07
Хор братии Свято-Успенской Почаевской Лавры под управлением Романа (Кимовича).
CD2. Божественная Литургия. 00:54:44
Хор братии Свято-Успенской Почаевской Лавры под управлением Романа (Кимовича).
CD3. Всенощная. 01:12:44
Великий Хор братии Свято-Успенской Почаевской Лавры под управлением Романа (Кимовича).
CD4. Божественная Литургия. 01:02:47
Великий Хор братии Свято-Успенской Почаевской Лавры под управлением Романа (Кимовича).
CD5. Песнопения Великого Поста. 01:02:02
Братский хор Свято-Успенской Почаевской Лавры под управлением Сергея Чеботаря.
CD6. Канты Великого Поста. 01:06:13
Братский хор Свято-Успенской Почаевской Лавры.
CD7. Пасхальные Песнопения. 01:14:37
Братский хор Свято-Успенской Почаевской Лавры.
Содержание
picpicpicpicpicpicpic
EAC log
cd1.
Exact Audio Copy V1.0 beta 2 from 29. April 2011

Отчёт EAC об извлечении, выполненном 28. мая 2012, 20:38

Хор братии СУПЛ / Всенощное Бдение

Дисковод: ASUS DRW-2014L1T Adapter: 2 ID: 1

Режим чтения : Достоверность
Использование точного потока : Да
Отключение кэша аудио : Да
Использование указателей C2 : Нет

Коррекция смещения при чтении : 6
Способность читать области Lead-in и Lead-out : Нет
Заполнение пропущенных сэмплов тишиной : Да
Удаление блоков с тишиной в начале и конце : Нет
При вычислениях CRC использовались нулевые сэмплы : Да
Интерфейс : Встроенный Win32-интерфейс для Win NT/2000

Выходной формат : Внутренние WAV-операции
Формат сэмплов : 44.100 Гц; 16 бит; стерео

TOC извлечённого CD

Трек | Старт | Длительность | Начальный сектор | Конечный сектор
---------------------------------------------------------------------
1 | 0:00.00 | 5:53.00 | 0 | 26474
2 | 5:53.00 | 5:13.00 | 26475 | 49949
3 | 11:06.00 | 3:01.00 | 49950 | 63524
4 | 14:07.00 | 1:23.00 | 63525 | 69749
5 | 15:30.00 | 1:57.00 | 69750 | 78524
6 | 17:27.00 | 5:18.00 | 78525 | 102374
7 | 22:45.00 | 2:32.00 | 102375 | 113774
8 | 25:17.00 | 2:23.00 | 113775 | 124499
9 | 27:40.00 | 4:08.00 | 124500 | 143099
10 | 31:48.00 | 2:19.00 | 143100 | 153524
11 | 34:07.00 | 3:36.00 | 153525 | 169724
12 | 37:43.00 | 2:34.00 | 169725 | 181274
13 | 40:17.00 | 3:13.00 | 181275 | 195749
14 | 43:30.00 | 4:47.00 | 195750 | 217274
15 | 48:17.00 | 1:24.00 | 217275 | 223574
16 | 49:41.00 | 8:49.00 | 223575 | 263249
17 | 58:30.00 | 2:05.00 | 263250 | 272624
18 | 60:35.00 | 6:24.00 | 272625 | 301424
19 | 66:59.00 | 1:58.00 | 301425 | 310274
20 | 68:57.00 | 1:50.00 | 310275 | 318524
21 | 70:47.00 | 2:21.00 | 318525 | 329099

Характеристики диапазона извлечения и сообщения об ошибках

Выбранный диапазон

Имя файла C:\Хор братии СУПЛ - Всенощное Бдение.wav

Пиковый уровень 100.0 %
Скорость извлечения 9.0 X
Качество диапазона 100.0 %
CRC копии 71950143
Копирование... OK

Ошибок не произошло

Конец отчёта

==== Контрольная сумма отчёта 57419A7CD29EEF761EEB9F80B018B42595C9C2D10E088D1C8DB61F5354AE0F85 ====

cd2.
Exact Audio Copy V1.0 beta 2 from 29. April 2011

Отчёт EAC об извлечении, выполненном 28. мая 2012, 21:09

Хор братии СУПЛ / Божественная Литургия

Дисковод: ASUS DRW-2014L1T Adapter: 2 ID: 1

Режим чтения : Достоверность
Использование точного потока : Да
Отключение кэша аудио : Да
Использование указателей C2 : Нет

Коррекция смещения при чтении : 6
Способность читать области Lead-in и Lead-out : Нет
Заполнение пропущенных сэмплов тишиной : Да
Удаление блоков с тишиной в начале и конце : Нет
При вычислениях CRC использовались нулевые сэмплы : Да
Интерфейс : Встроенный Win32-интерфейс для Win NT/2000

Выходной формат : Внутренние WAV-операции
Формат сэмплов : 44.100 Гц; 16 бит; стерео

TOC извлечённого CD

Трек | Старт | Длительность | Начальный сектор | Конечный сектор
---------------------------------------------------------------------
1 | 0:00.00 | 1:23.00 | 0 | 6224
2 | 1:23.00 | 5:43.00 | 6225 | 31949
3 | 7:06.00 | 1:50.00 | 31950 | 40199
4 | 8:56.00 | 1:36.00 | 40200 | 47399
5 | 10:32.00 | 2:37.00 | 47400 | 59174
6 | 13:09.00 | 1:52.00 | 59175 | 67574
7 | 15:01.00 | 3:39.00 | 67575 | 83999
8 | 18:40.00 | 1:19.00 | 84000 | 89924
9 | 19:59.00 | 3:06.00 | 89925 | 103874
10 | 23:05.00 | 1:32.00 | 103875 | 110774
11 | 24:37.00 | 5:17.00 | 110775 | 134549
12 | 29:54.00 | 5:31.00 | 134550 | 159374
13 | 35:25.00 | 0:43.00 | 159375 | 162599
14 | 36:08.00 | 6:07.00 | 162600 | 190124
15 | 42:15.00 | 2:04.00 | 190125 | 199424
16 | 44:19.00 | 1:31.00 | 199425 | 206249
17 | 45:50.00 | 2:48.00 | 206250 | 218849
18 | 48:38.00 | 5:15.00 | 218850 | 242474
19 | 53:53.00 | 0:52.00 | 242475 | 246374

Характеристики диапазона извлечения и сообщения об ошибках

Выбранный диапазон

Имя файла C:\Хор братии СУПЛ - Божественная Литургия.wav

Пиковый уровень 100.0 %
Скорость извлечения 8.4 X
Качество диапазона 100.0 %
CRC копии AF5CB78C
Копирование... OK

Ошибок не произошло

Конец отчёта

==== Контрольная сумма отчёта 84251785B5CCAD1AAC33F88B0612064155DDA3D1FD65B9E1D2825C6674237A3C ====

cd3.
Exact Audio Copy V1.0 beta 2 from 29. April 2011

Отчёт EAC об извлечении, выполненном 28. мая 2012, 22:26

Хор братии СУПЛ / Всенощная_Великий_хор

Дисковод: ASUS DRW-2014L1T Adapter: 2 ID: 1

Режим чтения : Достоверность
Использование точного потока : Да
Отключение кэша аудио : Да
Использование указателей C2 : Нет

Коррекция смещения при чтении : 6
Способность читать области Lead-in и Lead-out : Нет
Заполнение пропущенных сэмплов тишиной : Да
Удаление блоков с тишиной в начале и конце : Нет
При вычислениях CRC использовались нулевые сэмплы : Да
Интерфейс : Встроенный Win32-интерфейс для Win NT/2000

Выходной формат : Внутренние WAV-операции
Формат сэмплов : 44.100 Гц; 16 бит; стерео

TOC извлечённого CD

Трек | Старт | Длительность | Начальный сектор | Конечный сектор
---------------------------------------------------------------------
1 | 0:00.00 | 0:38.00 | 0 | 2849
2 | 0:38.00 | 4:51.00 | 2850 | 24674
3 | 5:29.00 | 6:20.00 | 24675 | 53174
4 | 11:49.00 | 3:30.00 | 53175 | 68924
5 | 15:19.00 | 1:26.00 | 68925 | 75374
6 | 16:45.00 | 2:12.00 | 75375 | 85274
7 | 18:57.00 | 1:57.00 | 85275 | 94049
8 | 20:54.00 | 5:18.00 | 94050 | 117899
9 | 26:12.00 | 2:23.00 | 117900 | 128624
10 | 28:35.00 | 1:59.00 | 128625 | 137549
11 | 30:34.00 | 2:33.00 | 137550 | 149024
12 | 33:07.00 | 2:16.00 | 149025 | 159224
13 | 35:23.00 | 2:22.00 | 159225 | 169874
14 | 37:45.00 | 3:06.00 | 169875 | 183824
15 | 40:51.00 | 2:34.00 | 183825 | 195374
16 | 43:25.00 | 3:13.00 | 195375 | 209849
17 | 46:38.00 | 6:05.00 | 209850 | 237224
18 | 52:43.00 | 1:24.00 | 237225 | 243524
19 | 54:07.00 | 8:49.00 | 243525 | 283199
20 | 62:56.00 | 2:05.00 | 283200 | 292574
21 | 65:01.00 | 1:58.00 | 292575 | 301424
22 | 66:59.00 | 1:50.00 | 301425 | 309674
23 | 68:49.00 | 2:21.00 | 309675 | 320249
24 | 71:10.00 | 1:35.00 | 320250 | 327374

Характеристики диапазона извлечения и сообщения об ошибках

Выбранный диапазон

Имя файла C:\Хор братии СУПЛ - Всенощная_Великий_хор.wav

Пиковый уровень 100.0 %
Скорость извлечения 9.3 X
Качество диапазона 100.0 %
CRC копии AEEDE943
Копирование... OK

Ошибок не произошло

Конец отчёта

==== Контрольная сумма отчёта CCA480DE34DCCA1BF2DAB77E73E19F23D46FFF5313C16B23D5A8CBB6FC3FF399 ====

cd4.
Exact Audio Copy V1.0 beta 2 from 29. April 2011

Отчёт EAC об извлечении, выполненном 29. мая 2012, 7:09

Великий хор СУПЛ / Литургия

Дисковод: ASUS DRW-2014L1T Adapter: 2 ID: 1

Режим чтения : Достоверность
Использование точного потока : Да
Отключение кэша аудио : Да
Использование указателей C2 : Нет

Коррекция смещения при чтении : 6
Способность читать области Lead-in и Lead-out : Нет
Заполнение пропущенных сэмплов тишиной : Да
Удаление блоков с тишиной в начале и конце : Нет
При вычислениях CRC использовались нулевые сэмплы : Да
Интерфейс : Встроенный Win32-интерфейс для Win NT/2000

Выходной формат : Внутренние WAV-операции
Формат сэмплов : 44.100 Гц; 16 бит; стерео

TOC извлечённого CD

Трек | Старт | Длительность | Начальный сектор | Конечный сектор
---------------------------------------------------------------------
1 | 0:00.00 | 1:23.00 | 0 | 6224
2 | 1:23.00 | 5:43.00 | 6225 | 31949
3 | 7:06.00 | 2:11.00 | 31950 | 41774
4 | 9:17.00 | 1:52.00 | 41775 | 50174
5 | 11:09.00 | 2:13.00 | 50175 | 60149
6 | 13:22.00 | 1:36.00 | 60150 | 67349
7 | 14:58.00 | 4:07.00 | 67350 | 85874
8 | 19:05.00 | 1:19.00 | 85875 | 91799
9 | 20:24.00 | 1:14.00 | 91800 | 97349
10 | 21:38.00 | 1:32.00 | 97350 | 104249
11 | 23:10.00 | 5:52.00 | 104250 | 130649
12 | 29:02.00 | 5:31.00 | 130650 | 155474
13 | 34:33.00 | 0:43.00 | 155475 | 158699
14 | 35:16.00 | 6:07.00 | 158700 | 186224
15 | 41:23.00 | 1:59.00 | 186225 | 195149
16 | 43:22.00 | 1:31.00 | 195150 | 201974
17 | 44:53.00 | 6:25.00 | 201975 | 230849
18 | 51:18.00 | 3:37.00 | 230850 | 247124
19 | 54:55.00 | 4:42.00 | 247125 | 268274
20 | 59:37.00 | 2:19.00 | 268275 | 278699
21 | 61:56.00 | 0:52.00 | 278700 | 282599

Характеристики диапазона извлечения и сообщения об ошибках

Выбранный диапазон

Имя файла C:\Великий хор СУПЛ - Литургия.wav

Пиковый уровень 100.0 %
Скорость извлечения 8.4 X
Качество диапазона 100.0 %
CRC копии 14FE4FB6
Копирование... OK

Ошибок не произошло

Конец отчёта

==== Контрольная сумма отчёта D37E405ED3FBBB64BC6CB7D3502D544B9E789D2871A76C588584B51568EF8F6A ====

cd5.
Exact Audio Copy V1.0 beta 2 from 29. April 2011

Отчёт EAC об извлечении, выполненном 29. мая 2012, 7:28

Братский хор СУПЛ / Песнопения Великого Поста

Дисковод: ASUS DRW-2014L1T Adapter: 2 ID: 1

Режим чтения : Достоверность
Использование точного потока : Да
Отключение кэша аудио : Да
Использование указателей C2 : Нет

Коррекция смещения при чтении : 6
Способность читать области Lead-in и Lead-out : Нет
Заполнение пропущенных сэмплов тишиной : Да
Удаление блоков с тишиной в начале и конце : Нет
При вычислениях CRC использовались нулевые сэмплы : Да
Интерфейс : Встроенный Win32-интерфейс для Win NT/2000

Выходной формат : Внутренние WAV-операции
Формат сэмплов : 44.100 Гц; 16 бит; стерео

TOC извлечённого CD

Трек | Старт | Длительность | Начальный сектор | Конечный сектор
---------------------------------------------------------------------
1 | 0:00.00 | 3:33.18 | 0 | 15992
2 | 3:33.18 | 5:18.01 | 15993 | 39843
3 | 8:51.19 | 7:37.07 | 39844 | 74125
4 | 16:28.26 | 4:28.26 | 74126 | 94251
5 | 20:56.52 | 2:53.08 | 94252 | 107234
6 | 23:49.60 | 1:31.24 | 107235 | 114083
7 | 25:21.09 | 3:10.26 | 114084 | 128359
8 | 28:31.35 | 6:04.46 | 128360 | 155705
9 | 34:36.06 | 2:07.18 | 155706 | 165248
10 | 36:43.24 | 1:11.23 | 165249 | 170596
11 | 37:54.47 | 2:43.27 | 170597 | 182848
12 | 40:37.74 | 1:48.28 | 182849 | 190976
13 | 42:26.27 | 1:05.70 | 190977 | 195921
14 | 43:32.22 | 2:03.73 | 195922 | 205219
15 | 45:36.20 | 2:14.16 | 205220 | 215285
16 | 47:50.36 | 2:55.37 | 215286 | 228447
17 | 50:45.73 | 1:36.47 | 228448 | 235694
18 | 52:22.45 | 3:34.68 | 235695 | 251812
19 | 55:57.38 | 2:28.12 | 251813 | 262924
20 | 58:25.50 | 2:01.00 | 262925 | 271999
21 | 60:26.50 | 1:36.07 | 272000 | 279206

Характеристики диапазона извлечения и сообщения об ошибках

Выбранный диапазон

Имя файла C:\Братский хор СУПЛ - Песнопения Великого Поста.wav

Пиковый уровень 56.8 %
Скорость извлечения 8.8 X
Качество диапазона 100.0 %
CRC копии 00606F41
Копирование... OK

Ошибок не произошло

Конец отчёта

==== Контрольная сумма отчёта 5046BC7ED637B3FA9B71374500F600E4A4E5B7C864FA5D387F452BAAEDA13B37 ====

cd6.
Exact Audio Copy V1.0 beta 2 from 29. April 2011

Отчёт EAC об извлечении, выполненном 29. мая 2012, 15:00

Братский хор СУПЛ / Канты Великого Поста

Дисковод: ASUS DRW-2014L1T Adapter: 2 ID: 1

Режим чтения : Достоверность
Использование точного потока : Да
Отключение кэша аудио : Да
Использование указателей C2 : Нет

Коррекция смещения при чтении : 6
Способность читать области Lead-in и Lead-out : Нет
Заполнение пропущенных сэмплов тишиной : Да
Удаление блоков с тишиной в начале и конце : Нет
При вычислениях CRC использовались нулевые сэмплы : Да
Интерфейс : Встроенный Win32-интерфейс для Win NT/2000

Выходной формат : Внутренние WAV-операции
Формат сэмплов : 44.100 Гц; 16 бит; стерео

TOC извлечённого CD

Трек | Старт | Длительность | Начальный сектор | Конечный сектор
---------------------------------------------------------------------
1 | 0:00.00 | 7:51.50 | 0 | 35374
2 | 7:51.50 | 3:08.06 | 35375 | 49480
3 | 10:59.56 | 3:51.55 | 49481 | 66860
4 | 14:51.36 | 2:43.49 | 66861 | 79134
5 | 17:35.10 | 4:17.54 | 79135 | 98463
6 | 21:52.64 | 9:23.17 | 98464 | 140705
7 | 31:16.06 | 5:52.02 | 140706 | 167107
8 | 37:08.08 | 4:18.30 | 167108 | 186487
9 | 41:26.38 | 9:27.56 | 186488 | 229068
10 | 50:54.19 | 3:33.29 | 229069 | 245072
11 | 54:27.48 | 3:13.01 | 245073 | 259548
12 | 57:40.49 | 4:38.46 | 259549 | 280444
13 | 62:19.20 | 3:53.73 | 280445 | 297992

Характеристики диапазона извлечения и сообщения об ошибках

Выбранный диапазон

Имя файла C:\Братский хор СУПЛ - Канты Великого Поста.wav

Пиковый уровень 69.9 %
Скорость извлечения 7.4 X
Качество диапазона 100.0 %
CRC копии 85947034
Копирование... OK

Ошибок не произошло

Конец отчёта

==== Контрольная сумма отчёта 97205B8800B281878A733D50C83107F85E89DAAF8668247E33CF849D3EBB84E1 ====

cd7.
Exact Audio Copy V1.0 beta 2 from 29. April 2011

Отчёт EAC об извлечении, выполненном 29. мая 2012, 15:13

Братский хор СУПЛ / Пасхальные песнопения

Дисковод: ASUS DRW-2014L1T Adapter: 2 ID: 1

Режим чтения : Достоверность
Использование точного потока : Да
Отключение кэша аудио : Да
Использование указателей C2 : Нет

Коррекция смещения при чтении : 6
Способность читать области Lead-in и Lead-out : Нет
Заполнение пропущенных сэмплов тишиной : Да
Удаление блоков с тишиной в начале и конце : Нет
При вычислениях CRC использовались нулевые сэмплы : Да
Интерфейс : Встроенный Win32-интерфейс для Win NT/2000

Выходной формат : Внутренние WAV-операции
Формат сэмплов : 44.100 Гц; 16 бит; стерео

TOC извлечённого CD

Трек | Старт | Длительность | Начальный сектор | Конечный сектор
---------------------------------------------------------------------
1 | 0:00.00 | 5:33.13 | 0 | 24987
2 | 5:33.13 | 4:20.59 | 24988 | 44546
3 | 9:53.72 | 6:22.27 | 44547 | 73223
4 | 16:16.24 | 2:21.74 | 73224 | 83872
5 | 18:38.23 | 2:22.32 | 83873 | 94554
6 | 21:00.55 | 1:38.48 | 94555 | 101952
7 | 22:39.28 | 1:02.15 | 101953 | 106617
8 | 23:41.43 | 3:37.16 | 106618 | 122908
9 | 27:18.59 | 2:19.26 | 122909 | 133359
10 | 29:38.10 | 2:43.17 | 133360 | 145601
11 | 32:21.27 | 1:54.69 | 145602 | 154220
12 | 34:16.21 | 2:21.17 | 154221 | 164812
13 | 36:37.38 | 3:15.24 | 164813 | 179461
14 | 39:52.62 | 3:33.26 | 179462 | 195462
15 | 43:26.13 | 3:10.43 | 195463 | 209755
16 | 46:36.56 | 4:02.71 | 209756 | 227976
17 | 50:39.52 | 1:49.11 | 227977 | 236162
18 | 52:28.63 | 2:03.39 | 236163 | 245426
19 | 54:32.27 | 5:09.26 | 245427 | 268627
20 | 59:41.53 | 5:33.46 | 268628 | 293648
21 | 65:15.24 | 2:08.05 | 293649 | 303253
22 | 67:23.29 | 4:57.15 | 303254 | 325543
23 | 72:20.44 | 2:16.66 | 325544 | 335809

Характеристики диапазона извлечения и сообщения об ошибках

Выбранный диапазон

Имя файла C:\Братский хор СУПЛ - Пасхальные песнопения.wav

Пиковый уровень 69.9 %
Скорость извлечения 9.4 X
Качество диапазона 100.0 %
CRC копии 7E9C74DE
Копирование... OK

Ошибок не произошло

Конец отчёта

==== Контрольная сумма отчёта 92CA3D0D8BCEB3F65BB6FC7C79C4FD35F1CA04871EE55D7438345A6F05EF200A ====
Дополнительная информация: Полностью обложки лежат в раздаче.
Часть II: http://pravtor.ru/viewtopic.php?t=11645
Download

Войдите для скачивания торрент-файла

Как скачивать  ·   Правила трекера



Последний раз редактировалось: СЕРГУЛЕТ (2012-12-26 17:55), всего редактировалось 3 раз(а)
[Профиль]  [ЛС] 

lllvvva

Стаж: 7 лет 5 месяцев

Сообщений: 42

Откуда: г.Балашиха, Московской области

Russia

post 29-Май-2012 21:08 (спустя 5 часов)

[Цитировать] 

Спасибо
[Профиль]  [ЛС] 

Странник1

Стаж: 7 лет

Сообщений: 2308

Russia

post 01-Июн-2012 11:39 (спустя 2 дня 14 часов)

[Цитировать] 

Спасибо
[Профиль]  [ЛС] 

Saha

Стаж: 6 лет 9 месяцев

Сообщений: 34

post 02-Июн-2012 09:30 (спустя 21 час)

[Цитировать] 

Спасибо
[Профиль]  [ЛС] 

Михаил 3

Стаж: 7 лет 9 месяцев

Сообщений: 77

Russia

post 02-Июн-2012 15:28 (спустя 5 часов)

[Цитировать] 

Спасибо Большое .
[Профиль]  [ЛС] 

brd_eugene

Стаж: 8 лет

Сообщений: 64

Ukraine

post 19-Июл-2012 22:29 (спустя 1 месяц 17 дней)

[Цитировать] 

СпасиБо!
[Профиль]  [ЛС] 

rsn

Стаж: 4 года 9 месяцев

Сообщений: 26

Ussr

post 25-Июл-2012 13:11 (спустя 5 дней)

[Цитировать] 

Спасибо Вам большое!! ar
[Профиль]  [ЛС] 

rostik

Стаж: 7 лет 8 месяцев

Сообщений: 42

Откуда: Днепропетровск

Ukraine

post 04-Ноя-2012 17:39 (спустя 3 месяца 10 дней)

[Цитировать] 

Благодарю сердечно! +
[Профиль]  [ЛС] 

Сергей 12

Стаж: 6 лет

Сообщений: 64

Откуда: Киев

Ukraine

post 02-Дек-2012 12:29 (спустя 27 дней)

[Цитировать] 

Спасибо!! Как бы вернулся в эту обитель!!!!...Очень трогательно!

_________________
Иисусе, Сыне Божий, помяни нас, егда приидеши во Царствии Твоем!
pic[/url]
[Профиль]  [ЛС] 

AllaVal27

Стаж: 3 года 1 месяц

Сообщений: 139

Canada

post 13-Ноя-2013 07:49 (спустя 11 месяцев)

[Цитировать] 

Спасибо большое!
[Профиль]  [ЛС] 

stepan-frunze

Стаж: 7 лет 9 месяцев

Сообщений: 2565

Russia

post 02-Дек-2013 23:24 (спустя 19 дней)

[Цитировать] 

Спасибо
[Профиль]  [ЛС] 

Tyristo

Стаж: 3 года 3 месяца

Сообщений: 11

Ukraine

post 22-Мар-2015 22:26 (спустя 1 год 3 месяца)

[Цитировать] 

Большое Спасибо !
[Профиль]  [ЛС] 

саша3

Стаж: 1 год 7 месяцев

Сообщений: 13

post 01-Май-2015 12:05 (спустя 1 месяц 8 дней)

[Цитировать] 

Спасибо, Вам, за красивую, величавую, духовную раздачу!
[Профиль]  [ЛС] 

CEPBEP4

Стаж: 5 лет 9 месяцев

Сообщений: 132

Откуда: ОРЕНБУРГ

Russia

post 07-Июн-2015 12:49 (спустя 1 месяц 6 дней)

[Цитировать] 

Спаси Господи!

_________________
pic
pic 100 Мбит/с pic 100 Мбит/с pic
[Профиль]  [ЛС] 

mangealic

Стаж: 2 года 4 месяца

Сообщений: 22

post 16-Янв-2016 18:33 (спустя 7 месяцев)

[Цитировать] 

Спасибо
[Профиль]  [ЛС] 
Показать сообщения:    
Ответить на тему

Текущее время: 08-Дек 00:13

Часовой пояс: GMT + 4



Вы не можете начинать темы
Вы не можете отвечать на сообщения
Вы не можете редактировать свои сообщения
Вы не можете удалять свои сообщения
Вы не можете голосовать в опросах
Вы не можете прикреплять файлы к сообщениям
Вы не можете скачивать файлы