Loading...
Error

(Церковная музыка и церковные хоры (lossless).) "Церковные песнопения". (Хор монахинь Пюхтицкого Успенского женского монастыря). (2CD). - 2007, APE (image + .cue), lossless

Ответить на тему
Статистика раздачи
Качают: [ 1 ]
Скачали: [ 23 ]
   
 
Автор Сообщение

СЕРГУЛЕТ

Стаж: 8 лет 3 месяца

Сообщений: 2639

Откуда: LA ROMANA

Dominicanrep

post 19-Май-2011 20:36

[Цитировать] 

"Церковные песнопения". (Хор монахинь Пюхтицкого Успенского женского монастыря). (2CD).

pic
Страна: Россия. Студия "Град Петров".
Жанр: Церковная музыка и церковные хоры (lossless).
Год выпуска: 2007
Формат: APE (image + .cue)
Битрейт аудио: lossless
Продолжительность: 70 мин + 73 мин.
Содержание+ Обложки
picpicpicpic
EAC log
Exact Audio Copy V1.0 beta 1 from 15. November 2010

Отчёт EAC об извлечении, выполненном 19. мая 2011, 17:48

Unknown Artist / Puhtitsi_2

Дисковод: HL-DT-STDVDRAM GE20NU10 Adapter: 5 ID: 0

Режим чтения : Достоверность
Использование точного потока : Да
Отключение кэша аудио : Да
Использование указателей C2 : Нет

Коррекция смещения при чтении : 667
Способность читать области Lead-in и Lead-out : Нет
Заполнение пропущенных сэмплов тишиной : Да
Удаление блоков с тишиной в начале и конце : Нет
При вычислениях CRC использовались нулевые сэмплы : Да
Интерфейс : Встроенный Win32-интерфейс для Win NT/2000

Выходной формат : Внутренние WAV-операции
Формат сэмплов : 44.100 Гц; 16 бит; стерео

TOC извлечённого CD

Трек | Старт | Длительность | Начальный сектор | Конечный сектор
---------------------------------------------------------------------
1 | 0:00.00 | 3:41.00 | 0 | 16574
2 | 3:41.00 | 4:04.44 | 16575 | 34918
3 | 7:45.44 | 2:43.40 | 34919 | 47183
4 | 10:29.09 | 3:00.14 | 47184 | 60697
5 | 13:29.23 | 3:28.65 | 60698 | 76362
6 | 16:58.13 | 2:05.68 | 76363 | 85805
7 | 19:04.06 | 1:58.70 | 85806 | 94725
8 | 21:03.01 | 3:52.14 | 94726 | 112139
9 | 24:55.15 | 4:28.09 | 112140 | 132248
10 | 29:23.24 | 4:12.51 | 132249 | 151199
11 | 33:36.00 | 3:14.13 | 151200 | 165762
12 | 36:50.13 | 2:52.32 | 165763 | 178694
13 | 39:42.45 | 1:55.22 | 178695 | 187341
14 | 41:37.67 | 3:24.62 | 187342 | 202703
15 | 45:02.54 | 3:58.58 | 202704 | 220611
16 | 49:01.37 | 4:27.41 | 220612 | 240677
17 | 53:29.03 | 6:12.27 | 240678 | 268604
18 | 59:41.30 | 1:53.11 | 268605 | 277090
19 | 61:34.41 | 4:13.54 | 277091 | 296119
20 | 65:48.20 | 3:10.17 | 296120 | 310386
21 | 68:58.37 | 4:59.71 | 310387 | 332882

Характеристики диапазона извлечения и сообщения об ошибках

Выбранный диапазон

Имя файла C:\Users\Ирина\Desktop\Unknown Artist - Puhtitsi_2.wav

Пиковый уровень 96.6 %
Скорость извлечения 0.3 X
Качество диапазона 100.0 %
CRC копии 744066D0
Копирование... OK

Ошибок не произошло

Конец отчёта

cd2.
Exact Audio Copy V1.0 beta 1 from 15. November 2010

Отчёт EAC об извлечении, выполненном 19. мая 2011, 17:31

Unknown Artist / Puhtitsi_1

Дисковод: HL-DT-STDVDRAM GE20NU10 Adapter: 5 ID: 0

Режим чтения : Достоверность
Использование точного потока : Да
Отключение кэша аудио : Да
Использование указателей C2 : Нет

Коррекция смещения при чтении : 667
Способность читать области Lead-in и Lead-out : Нет
Заполнение пропущенных сэмплов тишиной : Да
Удаление блоков с тишиной в начале и конце : Нет
При вычислениях CRC использовались нулевые сэмплы : Да
Интерфейс : Встроенный Win32-интерфейс для Win NT/2000

Выходной формат : Внутренние WAV-операции
Формат сэмплов : 44.100 Гц; 16 бит; стерео

TOC извлечённого CD

Трек | Старт | Длительность | Начальный сектор | Конечный сектор
---------------------------------------------------------------------
1 | 0:00.00 | 2:50.26 | 0 | 12775
2 | 2:50.26 | 2:53.25 | 12776 | 25775
3 | 5:43.51 | 3:20.21 | 25776 | 40796
4 | 9:03.72 | 2:47.55 | 40797 | 53376
5 | 11:51.52 | 3:50.07 | 53377 | 70633
6 | 15:41.59 | 2:20.57 | 70634 | 81190
7 | 18:02.41 | 3:28.62 | 81191 | 96852
8 | 21:31.28 | 1:44.23 | 96853 | 104675
9 | 23:15.51 | 1:46.27 | 104676 | 112652
10 | 25:02.03 | 1:30.50 | 112653 | 119452
11 | 26:32.53 | 7:56.54 | 119453 | 155206
12 | 34:29.32 | 2:32.49 | 155207 | 166655
13 | 37:02.06 | 1:47.11 | 166656 | 174691
14 | 38:49.17 | 3:03.26 | 174692 | 188442
15 | 41:52.43 | 0:58.33 | 188443 | 192825
16 | 42:51.01 | 2:30.48 | 192826 | 204123
17 | 45:21.49 | 4:01.36 | 204124 | 222234
18 | 49:23.10 | 2:43.24 | 222235 | 234483
19 | 52:06.34 | 2:13.44 | 234484 | 244502
20 | 54:20.03 | 2:16.33 | 244503 | 254735
21 | 56:36.36 | 2:44.60 | 254736 | 267095
22 | 59:21.21 | 2:19.48 | 267096 | 277568
23 | 61:40.69 | 2:50.54 | 277569 | 290372
24 | 64:31.48 | 2:47.16 | 290373 | 302913
25 | 67:18.64 | 2:51.67 | 302914 | 315805

Характеристики диапазона извлечения и сообщения об ошибках

Выбранный диапазон

Имя файла C:\Users\Ирина\Desktop\Unknown Artist - Puhtitsi_1.wav

Подозрительная позиция 0:39:21

Пиковый уровень 96.6 %
Скорость извлечения 0.1 X
Качество диапазона 99.9 %
CRC копии 0CC3FBA3
Копирование завершено

Были ошибки

Конец отчёта
Дополнительная информация: Регент хора - монахиня Иннокентия (Давыдова).
Хормейстер - инокиня Варсонофия (Кастальская-Бороздина).
Запись осуществлена в Успенском соборе Пюхтицкого монастыря в ноябре 2002 года.
Download

Войдите для скачивания торрент-файла

Как скачивать  ·   Правила трекера

[Профиль]  [ЛС] 

+Сергей+

Стаж: 6 лет 5 месяцев

Сообщений: 225

Откуда: Москва

Russia

post 19-Май-2011 21:00 (спустя 23 минуты)

[Цитировать] 

Спасибо большое.
[Профиль]  [ЛС] 

vit00707

Стаж: 7 лет 7 месяцев

Сообщений: 40

post 13-Мар-2012 13:31 (спустя 9 месяцев)

[Цитировать] 

спасибо большое
[Профиль]  [ЛС] 

shymsknik

Стаж: 6 лет 4 месяца

Сообщений: 179

Russia

post 18-Апр-2012 14:49 (спустя 1 месяц 5 дней)

[Цитировать] 

Спаси Господи
[Профиль]  [ЛС] 

Горсвет

Стаж: 5 лет 5 месяцев

Сообщений: 113

Ukraine

post 11-Сен-2015 00:08 (спустя 3 года 4 месяца)

[Цитировать] 

дайте скорости пожалуйста спаси Бог вас всех

_________________
ДА ЛЮБИТЕ ДРУГ ДРУГА
[Профиль]  [ЛС] 

людмила-00

Стаж: 1 год 9 месяцев

Сообщений: 7

Russia

post 15-Июл-2016 05:10 (спустя 10 месяцев)

[Цитировать] 

спасибо
[Профиль]  [ЛС] 

---!!!

Стаж: 1 год 9 месяцев

Сообщений: 597

Russia

post 17-Июл-2016 11:29 (спустя 2 дня 6 часов)

[Цитировать] 

спасибо большое
[Профиль]  [ЛС] 

Nathan

Стаж: 7 лет 6 месяцев

Сообщений: 16

Ussr

post 20-Сен-2016 20:26 (спустя 2 месяца 3 дня)

[Цитировать] 

благодарю
[Профиль]  [ЛС] 

Владимир322

Стаж: 10 месяцев

Сообщений: 1

Russia

post 06-Ноя-2016 20:00 (спустя 1 месяц 15 дней)

[Цитировать] 

Спаси Господи!

_________________
Иванников
[Профиль]  [ЛС] 

Dubav

Стаж: 11 месяцев

Сообщений: 10

Mongolia

post 25-Фев-2017 10:24 (спустя 3 месяца 18 дней)

[Цитировать] 

Спасибо
[Профиль]  [ЛС] 

Сергей Соколов

Стаж: 2 года 2 месяца

Сообщений: 5

Russia

post 26-Фев-2017 01:59 (спустя 15 часов)

[Цитировать] 

Спасибо большое.
[Профиль]  [ЛС] 
Показать сообщения:    
Ответить на тему

Текущее время: 27-Май 23:31

Часовой пояс: GMT + 4



Вы не можете начинать темы
Вы не можете отвечать на сообщения
Вы не можете редактировать свои сообщения
Вы не можете удалять свои сообщения
Вы не можете голосовать в опросах
Вы не можете прикреплять файлы к сообщениям
Вы не можете скачивать файлы