Loading...
Error

(Церковная музыка Греции, Афона и Сербии (lossless).) Дивна Любоевич и "Мелоди". "Христос Воскресе". - 2006, WAVPack (tracks), lossless

Ответить на тему
Статистика раздачи
Скачали: [ 3 ]
   
 
Автор Сообщение

СЕРГУЛЕТ

Стаж: 7 лет 10 месяцев

Сообщений: 2639

Откуда: LA ROMANA

Dominicanrep

post 16-Дек-2011 22:28

[Цитировать] 

Дивна Любоевич и "Мелоди". "Христос Воскресе".

pic
Страна: Сербия.
Жанр: Церковная музыка Греции, Афона и Сербии (lossless).
Год выпуска: 2006
Формат: WAVPack (tracks)
Битрейт аудио: lossless
Продолжительность: 00:42:00
Трэклист:
01. "Христос Анести" (Тропарь Пасхи) - 02:24
02. Прокимен Великий "Кто Бог велий" - 02:10
03. Статии (сербский напев) - 05:29
04. "Анастасеос имера" ("Воскресения день", византийский напев) - 01:39
05. "Приидите, ублажим Иосифа" (П.Чесноков) - 03:25
06. "Плотию уснув" (Светилен Пасхи, сербский напев) - 01:00
07. "Ангельский собор" (Тропари по Непорочных, византийский напев) - 04:43
08. "Воскресение Твое" - "Преблагословенна еси" (сербский напев) - 01:34
09. Великое Славословие (сербский напев) - 04:45
10. "Днесь спесение" - "Да веселятся небесная" (сербский напев) - 01:51
11. "Елицы во Христа крестистеся" (византийский напев) - 02:58
12. Херувимская песнь (Д.Ковалевский) - 03:09
13. Стихиры Пасхи (византийский напев) - 03:34
14. "Люди, ликуйте" (свт. Николай (Велимирович)) - 02:30
15. "Христос воскресе" (Тропарь Пасхи) - 0:42
EAC log
Exact Audio Copy V1.0 beta 3 from 29. August 2011

Отчёт EAC об извлечении, выполненном 20. октября 2011, 20:07

Дивна Любоевич и "Мелоди" / Христос воскресе

Дисковод: HL-DT-STDVDRAM GSA-H60N Adapter: 2 ID: 1

Режим чтения : Достоверность
Использование точного потока : Да
Отключение кэша аудио : Да
Использование указателей C2 : Нет

Коррекция смещения при чтении : 667
Способность читать области Lead-in и Lead-out : Нет
Заполнение пропущенных сэмплов тишиной : Да
Удаление блоков с тишиной в начале и конце : Нет
При вычислениях CRC использовались нулевые сэмплы : Да
Интерфейс : Встроенный Win32-интерфейс для Win NT/2000
Обработка зазоров : Добавлено к предыдущему треку

Выходной формат : Пользовательский кодировщик
Выбранный битрейт : 128 kBit/s
Качество : Высокий
Добавление ID3-тега : Нет
Утилита сжатия : C:\Users\Нектарий\AppData\Local\Microsoft\Windows\Temporary Internet Files\Content.IE5\1EEVCG15\wavpack[1].exe
Дополнительные параметры : -hm -w "Genre=%genre%" -w "Artist=%artist%" -w "Title=%title%" -w "Album=%albumtitle%" -w "Year=%year%" -w "Track=%tracknr%" -w "Comment=%comment%" %source% %dest%

TOC извлечённого CD

Трек | Старт | Длительность | Начальный сектор | Конечный сектор
---------------------------------------------------------------------
1 | 0:00.00 | 2:24.05 | 0 | 10804
2 | 2:24.05 | 2:10.55 | 10805 | 20609
3 | 4:34.60 | 5:29.69 | 20610 | 45353
4 | 10:04.54 | 1:29.50 | 45354 | 52078
5 | 11:34.29 | 3:25.10 | 52079 | 67463
6 | 14:59.39 | 1:00.74 | 67464 | 72037
7 | 16:00.38 | 4:43.31 | 72038 | 93293
8 | 20:43.69 | 1:34.44 | 93294 | 100387
9 | 22:18.38 | 4:45.71 | 100388 | 121833
10 | 27:04.34 | 1:51.07 | 121834 | 130165
11 | 28:55.41 | 2:58.38 | 130166 | 143553
12 | 31:54.04 | 3:09.47 | 143554 | 157775
13 | 35:03.51 | 3:34.46 | 157776 | 173871
14 | 38:38.22 | 2:30.65 | 173872 | 185186
15 | 41:09.12 | 0:42.41 | 185187 | 188377

Трек 1

Имя файла E:\Мои раздачи\lossless\Духовные песнопения\Дивна Любоевич\01 ''Христос Анести'' (Тропарь Пасхи).wav

Длина предзазора 0:00:02.00

Пиковый уровень 50.8 %
Скорость извлечения 2.6 X
Качество трека 99.9 %
CRC теста 3E697591
CRC копии 3E697591
Точное извлечение (достоверность 2) [A6EB8A23] (AR v1)
Копирование... OK

Трек 2

Имя файла E:\Мои раздачи\lossless\Духовные песнопения\Дивна Любоевич\02 Прокимен Великий ''Кто Бог велий''.wav

Длина предзазора 0:00:02.00

Пиковый уровень 97.7 %
Скорость извлечения 3.2 X
Качество трека 100.0 %
CRC теста ADD6C681
CRC копии ADD6C681
Точное извлечение (достоверность 2) [9C78015E] (AR v1)
Копирование... OK

Трек 3

Имя файла E:\Мои раздачи\lossless\Духовные песнопения\Дивна Любоевич\03 Статии (сербский распев).wav

Длина предзазора 0:00:02.00

Пиковый уровень 44.1 %
Скорость извлечения 4.2 X
Качество трека 100.0 %
CRC теста 047D6E1A
CRC копии 047D6E1A
Точное извлечение (достоверность 2) [871ACB83] (AR v1)
Копирование... OK

Трек 4

Имя файла E:\Мои раздачи\lossless\Духовные песнопения\Дивна Любоевич\04 ''Анастасеос имера'' (''Воскресения день''), византийский напев.wav

Длина предзазора 0:00:02.00

Пиковый уровень 75.3 %
Скорость извлечения 3.4 X
Качество трека 100.0 %
CRC теста B6C0EE68
CRC копии B6C0EE68
Точное извлечение (достоверность 2) [901E311A] (AR v1)
Копирование... OK

Трек 5

Имя файла E:\Мои раздачи\lossless\Духовные песнопения\Дивна Любоевич\05 ''Приидите, ублажим Иосифа''.wav

Длина предзазора 0:00:02.00

Пиковый уровень 97.7 %
Скорость извлечения 4.3 X
Качество трека 100.0 %
CRC теста 87938C72
CRC копии 87938C72
Точное извлечение (достоверность 2) [6498A37E] (AR v1)
Копирование... OK

Трек 6

Имя файла E:\Мои раздачи\lossless\Духовные песнопения\Дивна Любоевич\06 ''Плотию уснув'', сербский напев.wav

Длина предзазора 0:00:02.00

Пиковый уровень 46.0 %
Скорость извлечения 3.0 X
Качество трека 100.0 %
CRC теста 91AF1336
CRC копии 91AF1336
Точное извлечение (достоверность 2) [1210DAC1] (AR v1)
Копирование... OK

Трек 7

Имя файла E:\Мои раздачи\lossless\Духовные песнопения\Дивна Любоевич\07 ''Ангельский собор'', византийский напев.wav

Длина предзазора 0:00:02.00

Пиковый уровень 62.3 %
Скорость извлечения 4.9 X
Качество трека 100.0 %
CRC теста FC1587AB
CRC копии FC1587AB
Точное извлечение (достоверность 2) [04BDEBD1] (AR v1)
Копирование... OK

Трек 8

Имя файла E:\Мои раздачи\lossless\Духовные песнопения\Дивна Любоевич\08 ''Воскресение Твое'' - ''Преблагословенна еси'', сербский напев.wav

Длина предзазора 0:00:02.00

Пиковый уровень 64.5 %
Скорость извлечения 3.1 X
Качество трека 99.8 %
CRC теста 9DE239A0
CRC копии 9DE239A0
Точное извлечение (достоверность 2) [2A12C365] (AR v1)
Копирование... OK

Трек 9

Имя файла E:\Мои раздачи\lossless\Духовные песнопения\Дивна Любоевич\09 ''Великое Славословие'', сербский напев.wav

Длина предзазора 0:00:02.00

Пиковый уровень 62.3 %
Скорость извлечения 5.3 X
Качество трека 100.0 %
CRC теста 36EE2334
CRC копии 36EE2334
Точное извлечение (достоверность 2) [565ED711] (AR v1)
Копирование... OK

Трек 10

Имя файла E:\Мои раздачи\lossless\Духовные песнопения\Дивна Любоевич\10 ''Днесь спасение'' - ''Да веселятся'', сербский напев.wav

Длина предзазора 0:00:02.00

Пиковый уровень 66.8 %
Скорость извлечения 4.4 X
Качество трека 100.0 %
CRC теста 44E86C5E
CRC копии 44E86C5E
Точное извлечение (достоверность 2) [B1D1D474] (AR v1)
Копирование... OK

Трек 11

Имя файла E:\Мои раздачи\lossless\Духовные песнопения\Дивна Любоевич\11 ''Елицы во Христа крестистеся'', византийский напев.wav

Длина предзазора 0:00:02.00

Пиковый уровень 97.7 %
Скорость извлечения 5.1 X
Качество трека 100.0 %
CRC теста C48271C7
CRC копии C48271C7
Точное извлечение (достоверность 2) [EAB90574] (AR v1)
Копирование... OK

Трек 12

Имя файла E:\Мои раздачи\lossless\Духовные песнопения\Дивна Любоевич\12 ''Херувимская песнь''.wav

Длина предзазора 0:00:02.00

Пиковый уровень 97.7 %
Скорость извлечения 5.5 X
Качество трека 100.0 %
CRC теста 72BA7C19
CRC копии 72BA7C19
Точное извлечение (достоверность 2) [EA7D8197] (AR v1)
Копирование... OK

Трек 13

Имя файла E:\Мои раздачи\lossless\Духовные песнопения\Дивна Любоевич\13 Стихиры Пасхи, византийский напев.wav

Длина предзазора 0:00:02.00

Пиковый уровень 79.0 %
Скорость извлечения 5.8 X
Качество трека 100.0 %
CRC теста 51F532C6
CRC копии 51F532C6
Точное извлечение (достоверность 2) [5960B760] (AR v1)
Копирование... OK

Трек 14

Имя файла E:\Мои раздачи\lossless\Духовные песнопения\Дивна Любоевич\14 ''Люди, ликуйте''.wav

Длина предзазора 0:00:02.00

Пиковый уровень 97.2 %
Скорость извлечения 5.5 X
Качество трека 100.0 %
CRC теста 090B1F6E
CRC копии 090B1F6E
Точное извлечение (достоверность 2) [381B5624] (AR v1)
Копирование... OK

Трек 15

Имя файла E:\Мои раздачи\lossless\Духовные песнопения\Дивна Любоевич\15 ''Христос воскресе'' (тропарь Пасхи).wav

Длина предзазора 0:00:02.00

Пиковый уровень 97.7 %
Скорость извлечения 3.6 X
Качество трека 100.0 %
CRC теста 7DBB41C2
CRC копии 7DBB41C2
Точное извлечение (достоверность 2) [28F4BAF0] (AR v1)
Копирование... OK

Все треки извлечены точно

Ошибок не произошло

Конец отчёта

==== Контрольная сумма отчёта 39CD37B1AC8BCBD9655CA38AB699ECDFF46272844C06124835ACFD147F1D3096 ====
Дополнительная информация: Обложки отсканированные лежат в раздаче.
Download

Войдите для скачивания торрент-файла

Как скачивать  ·   Правила трекера

[Профиль]  [ЛС] 

+Сергей+

Стаж: 6 лет

Сообщений: 225

Откуда: Москва

Russia

post 02-Фев-2012 07:33 (спустя 1 месяц 16 дней)

[Цитировать] 

Благодарю.
[Профиль]  [ЛС] 

dongoran

post 17-Апр-2012 14:46 (спустя 2 месяца 15 дней)

[Цитировать] 

Спаси господи.
Thanks a lot.

Greetings from Serbia.
 

gavrik.s

Стаж: 4 года 11 месяцев

Сообщений: 82

post 01-Сен-2012 23:59 (спустя 4 месяца 14 дней)

[Цитировать] 

Спасибо.Всем понравилось.С душой.
[Профиль]  [ЛС] 

tihij

Стаж: 1 год 9 месяцев

Сообщений: 2

post 03-Ноя-2016 23:56 (спустя 4 года 2 месяца)

[Цитировать] 

Спаси Господи!
[Профиль]  [ЛС] 
Показать сообщения:    
Ответить на тему

Текущее время: 11-Дек 00:22

Часовой пояс: GMT + 4



Вы не можете начинать темы
Вы не можете отвечать на сообщения
Вы не можете редактировать свои сообщения
Вы не можете удалять свои сообщения
Вы не можете голосовать в опросах
Вы не можете прикреплять файлы к сообщениям
Вы не можете скачивать файлы