Loading...
Error

(Церковная музыка и церковные хоры (lossless).) "Параклисис (молебный канон) св. вмч. Пантелеимону". - 2007, APE (image + .cue), lossless

Ответить на тему
Статистика раздачи
Скачали: [ 3 ]
   
 
Автор Сообщение

СЕРГУЛЕТ

Стаж: 8 лет

Сообщений: 2639

Откуда: LA ROMANA

Dominicanrep

post 22-Окт-2009 23:05

[Цитировать] 

"Параклисис (молебный канон) св. вмч. Пантелеимону".

pic
Страна: Греция.
Жанр: Церковная музыка и церковные хоры (lossless).
Год выпуска: 2007
Формат: APE (image + .cue)
Битрейт аудио: lossless
Продолжительность: 01:05:50
Трэклист:
1. Благословен Бог наш. Господи, услыши молитву мою.
2. Бог Господь. Псалом 50.
3. Песни 1-3. Седален.
4. Песни 4-6. Кондак.
5. Прокимен. Евангелие.
6. Песни 7-9. Величания.
7. Трисвятое.
8. Тропарь.
9. Ектения. Отпуст.
10. Тропари после отпуста.
11. Матернее возлюбив благочестие
Дополнительная информация: Поёт молодежный хор собора св. Пантелеимона (Каламарья).
Обложки+Содержание
picpic
EAC log
Exact Audio Copy V0.99 prebeta 5 from 4. May 2009

Отчёт EAC об извлечении, выполненном 21. октября 2009, 23:56

Молодежный хор / Канон ВМЧ. Пантелеймону

Дисковод: ASUS BC-1205PT Adapter: 1 ID: 0

Режим чтения : Достоверность
Использование точного потока : Да
Отключение кэша аудио : Да
Использование указателей C2 : Нет

Коррекция смещения при чтении : 667
Способность читать области Lead-in и Lead-out : Нет
Заполнение пропущенных сэмплов тишиной : Да
Удаление блоков с тишиной в начале и конце : Нет
При вычислениях CRC использовались нулевые сэмплы : Да
Интерфейс : Встроенный Win32-интерфейс для Win NT/2000

Выходной формат : Внутренние WAV-операции
Формат сэмплов : 44.100 Гц; 16 бит; стерео

TOC извлечённого CD

Трек | Старт | Длительность | Начальный сектор | Конечный сектор
---------------------------------------------------------------------
1 | 0:00.00 | 2:05.19 | 0 | 9393
2 | 2:05.19 | 6:06.29 | 9394 | 36872
3 | 8:11.48 | 7:16.45 | 36873 | 69617
4 | 15:28.18 | 9:17.56 | 69618 | 111448
5 | 24:45.74 | 12:55.62 | 111449 | 169635
6 | 37:41.61 | 8:40.38 | 169636 | 208673
7 | 46:22.24 | 1:30.00 | 208674 | 215423
8 | 47:52.24 | 0:42.60 | 215424 | 218633
9 | 48:35.09 | 5:20.67 | 218634 | 242700
10 | 53:56.01 | 3:10.09 | 242701 | 256959
11 | 57:06.10 | 8:42.34 | 256960 | 296143

Характеристики диапазона извлечения и сообщения об ошибках

Выбранный диапазон

Имя файла C:\Молодежный хор - Канон ВМЧ. Пантелеймону.wav

Пиковый уровень 96.6 %
Качество диапазона 99.9 %
CRC копии A984D5A9
Копирование... OK

Ошибок не произошло
Конец отчёта
Download

Войдите для скачивания торрент-файла

Как скачивать  ·   Правила трекера

[Профиль]  [ЛС] 

gavrik.s

Стаж: 5 лет 1 месяц

Сообщений: 83

post 12-Апр-2012 12:51 (спустя 2 года 5 месяцев)

[Цитировать] 

Спасибо за раздачу!
[Профиль]  [ЛС] 
Показать сообщения:    
Ответить на тему

Текущее время: 22-Фев 14:41

Часовой пояс: GMT + 4



Вы не можете начинать темы
Вы не можете отвечать на сообщения
Вы не можете редактировать свои сообщения
Вы не можете удалять свои сообщения
Вы не можете голосовать в опросах
Вы не можете прикреплять файлы к сообщениям
Вы не можете скачивать файлы